<?xml version="1.0" standalone="no"?>
<!DOCTYPE svg PUBLIC "-//W3C//DTD SVG 1.1//EN" "http://www.w3.org/Graphics/SVG/1.1/DTD/svg11.dtd">
<svg xmlns="http://www.w3.org/2000/svg">
<defs >
<font id="WorkSans" horiz-adv-x="597" ><font-face
    font-family="Work Sans Thin"
    units-per-em="1000"
    panose-1="0 0 0 0 0 0 0 0 0 0"
    ascent="930"
    descent="-243"
    alphabetic="0" />
<glyph unicode=" " horiz-adv-x="281" />
<glyph unicode="!" horiz-adv-x="182" d="M99 660V302V170H83V302V660H99ZM91 39Q101 39 107 33T113 17Q113 7 107 1T91 -5Q81 -5 75 1T69 17Q69 27 75 33T91 39Z" />
<glyph unicode="&quot;" horiz-adv-x="241" d="M175 680V521H158V680H175ZM83 680V521H66V680H83Z" />
<glyph unicode="#" horiz-adv-x="632" d="M478 660L378 0H362L462 660H478ZM559 227V213H43V227H559ZM265 660L165 0H149L249 660H265ZM589 457V443H73V457H589Z" />
<glyph unicode="$" horiz-adv-x="580" d="M303 0Q242 0 190 18T102 75T55 171L69 179Q78 122 111 86T195 33T303 15Q394 15 451 55T509 172Q509 224 473 256T353 306L241 329Q182 341 145 362T91 414T74 487Q74 533 101 572T177 636T293 660Q376 660 433 624T513
511L501 501Q482 576 426 611T290 646Q231 646 186 625T116 568T91 487Q91 449 106 421T156 374T248 343L360 320Q447 302 486 267T525 172Q525 120 496 82T417 22T303 0ZM291 -100V760H305V-100H291Z" />
<glyph unicode="%" horiz-adv-x="755" d="M144 0L591 660H610L163 0H144ZM178 660Q227 660 257 636T302 573T316 492Q316 450 302 412T258 351T178 327Q129 327 99 350T54 412T39 492Q39 535 53 573T98 635T178 660ZM178 646Q135 646 108 624T68 567T55 492Q55
452 68 418T108 362T178 341Q221 341 248 362T287 417T300 492Q300 532 287 567T248 624T178 646ZM578 333Q627 333 657 309T702 247T716 166Q716 123 702 86T658 24T578 0Q529 0 498 24T453 85T438 166Q438 209 452 247T498 309T578 333ZM578 319Q535 319 508
298T467 241T454 166Q454 126 467 92T507 36T578 14Q621 14 647 35T687 91T700 166Q700 206 687 241T648 297T578 319Z" />
<glyph unicode="&amp;" horiz-adv-x="572" d="M234 -10Q181 -10 138 7T70 58T45 139Q45 178 58 208T95 263T152 310T225 357L230 360Q276 387 312 412T370 469T392 548Q392 595 360 623T274 652Q218 652 184 620T150 533Q150 509 156 490T179 443T229 372T316
256Q375 179 415 130T483 53T533 14T579 3L578 -10Q551 -10 526 2T472 43T403 121T307 245Q256 312 223 355T170 429T142 482T134 533Q134 574 151 603T200 649T274 666Q315 666 345 652T391 611T408 548Q408 498 386 464T327 403T242 349L237 346Q186 316 146
288T84 224T61 139Q61 97 83 67T145 20T231 4Q298 4 346 30T426 101L428 104Q463 154 479 222T495 366H510Q510 295 495 222T440 94L437 90Q405 45 355 18T234 -10Z" />
<glyph unicode="&apos;" horiz-adv-x="149" d="M83 680V521H66V680H83Z" />
<glyph unicode="(" horiz-adv-x="253" d="M236 740L244 730Q183 680 144 614T87 466T68 285Q68 186 86 104T144 -43T244 -160L236 -170Q142 -90 98 20T53 285Q53 440 97 550T236 740Z" />
<glyph unicode=")" horiz-adv-x="253" d="M17 -170L9 -160Q70 -110 109 -44T166 104T185 285Q185 384 167 466T109 613T9 730L17 740Q111 660 155 550T200 285Q200 130 156 20T17 -170Z" />
<glyph unicode="*" horiz-adv-x="510" d="M260 517L310 451L389 342L376 333L297 441L250 510L255 513L260 517ZM250 517L255 513L260 510L213 441L134 333L121 342L200 451L250 517ZM51 588L178 547L257 519L255 513L253 508L173 531L46 573L51 588ZM263 730V596L261
513H255H249L247 596V730H263ZM459 588L464 573L336 531L257 508L255 513L253 519L331 547L459 588Z" />
<glyph unicode="+" horiz-adv-x="604" d="M310 545V79H294V545H310ZM534 323V309H70V323H534Z" />
<glyph unicode="," horiz-adv-x="168" d="M85 39Q96 39 103 33T114 17T118 -6Q118 -25 112 -44T92 -80T59 -107L47 -98Q68 -89 82 -71T103 -31T102 7H100Q98 1 94 -2T83 -5Q77 -5 72 -2T65 6T62 17Q62 23 65 28T73 36T85 39Z" />
<glyph unicode="-" horiz-adv-x="417" d="M349 278V262H68V278H349Z" />
<glyph unicode="." horiz-adv-x="168" d="M84 39Q94 39 100 33T106 17Q106 7 100 1T84 -5Q74 -5 68 1T62 17Q62 27 68 33T84 39Z" />
<glyph unicode="/" horiz-adv-x="349" d="M313 730L52 -70H35L296 730H313Z" />
<glyph unicode="0" horiz-adv-x="590" d="M295 -10Q182 -10 121 78T60 330Q60 494 121 582T295 670Q408 670 469 582T530 330Q530 166 469 78T295 -10ZM295 4Q366 4 414 41T488 152T514 330Q514 436 489 508T415 618T295 656Q225 656 176 619T102 509T76 330Q76
225 101 152T176 42T295 4Z" />
<glyph unicode="1" horiz-adv-x="316" d="M208 0V568Q208 584 208 599T208 630Q178 581 131 549T33 500L28 513Q55 523 81 537T132 569T175 610T208 660H224V0H208Z" />
<glyph unicode="2" horiz-adv-x="534" d="M54 0V14Q143 88 215 150T339 266T420 372T448 475Q448 560 398 608T260 656Q172 656 119 602T62 458L47 464Q50 527 76 573T150 644T260 670Q307 670 344 657T408 619T449 557T463 475Q463 403 417 336T286 192T81 15V14Q86
14 90 14T100 14T109 14H492V0H54Z" />
<glyph unicode="3" horiz-adv-x="512" d="M263 -10Q174 -10 114 31T38 141L52 150Q61 106 89 73T160 22T261 4Q318 4 362 24T432 83T458 178Q458 228 435 261T374 310T288 326Q266 326 252 326T229 325V340Q240 339 255 339T285 339Q356 339 398 381T441 495Q441
570 394 613T267 656Q194 656 142 622T71 527L56 535Q71 577 101 607T173 654T267 670Q325 670 367 649T433 589T457 495Q457 465 449 438T424 389T384 353T329 333V332Q361 330 387 318T433 286T463 238T474 174Q474 119 447 78T372 13T263 -10Z" />
<glyph unicode="4" horiz-adv-x="550" d="M372 0V205H38V219Q38 219 38 219T38 219L366 660H388V219H527V205H388V0H372ZM56 219H372V582Q372 597 372 612T372 643H371Q361 628 350 613T328 584L56 219Q56 219 56 219T56 219Z" />
<glyph unicode="5" horiz-adv-x="535" d="M275 -10Q190 -10 129 25T50 149L64 155Q77 76 133 40T275 4Q333 4 376 28T445 96T470 196Q470 252 446 295T379 362T280 386Q226 386 189 374T127 342T86 301H72L102 660H461V646H115L89 337L87 318H88Q111 350 156 375T280
400Q341 400 387 374T459 302T486 196Q486 151 471 113T427 48T361 5T275 -10Z" />
<glyph unicode="6" horiz-adv-x="545" d="M308 670Q357 670 391 654T447 611T481 550L466 543Q452 591 413 623T308 656Q243 656 198 627T126 550T87 441T75 317Q75 287 78 255T85 194H87Q89 260 118 304T193 372T292 395Q357 395 402 370T472 299T496 192Q496
131 471 86T399 15T288 -10Q213 -10 162 28T86 143T60 330Q60 444 92 519T181 632T308 670ZM292 381Q234 381 191 353T124 282T100 191Q100 139 123 97T189 29T287 4Q376 4 428 56T480 194Q480 249 457 291T392 357T292 381Z" />
<glyph unicode="7" horiz-adv-x="494" d="M22 660H485V646Q405 560 349 461T261 247T217 0H200Q211 127 242 242T331 460T476 655L475 646H22V660Z" />
<glyph unicode="8" horiz-adv-x="562" d="M281 670Q341 670 385 650T454 594T479 508Q479 445 441 404T336 348V347Q414 334 460 286T507 169Q507 117 478 77T399 13T281 -10Q215 -10 164 13T84 76T55 169Q55 238 102 286T226 347V348Q159 362 121 403T83 508Q83
557 107 593T176 650T281 670ZM281 656Q199 656 149 616T99 508Q99 440 149 398T281 355Q364 355 413 397T463 508Q463 576 414 616T281 656ZM281 4Q343 4 390 25T464 83T491 169Q491 219 465 257T391 317T281 339Q219 339 172 317T98 257T71 169Q71 120 97 83T171
25T281 4Z" />
<glyph unicode="9" horiz-adv-x="566" d="M271 670Q350 670 402 630T480 515T506 330Q506 216 476 141T393 28T272 -10Q190 -10 134 29T63 130L77 137Q91 79 140 42T272 4Q334 4 376 32T444 108T480 215T491 334Q491 370 488 404T479 470H477Q477 402 446 357T368
288T268 265Q203 265 156 290T83 361T57 468Q57 530 83 575T158 645T271 670ZM272 656Q181 656 127 604T73 466Q73 382 126 331T268 279Q326 279 370 305T439 376T465 475Q465 524 439 565T370 631T272 656Z" />
<glyph unicode=":" horiz-adv-x="192" d="M96 500Q106 500 112 494T118 478Q118 468 112 462T96 456Q86 456 80 462T74 478Q74 488 80 494T96 500ZM96 39Q106 39 112 33T118 17Q118 7 112 1T96 -5Q86 -5 80 1T74 17Q74 27 80 33T96 39Z" />
<glyph unicode=";" horiz-adv-x="192" d="M95 39Q106 39 113 33T124 17T128 -6Q128 -25 122 -44T102 -80T69 -107L57 -98Q78 -89 92 -71T113 -31T112 7H110Q108 1 104 -2T93 -5Q87 -5 82 -2T75 6T72 17Q72 23 75 28T83 36T95 39ZM96 500Q106 500 112 494T118 478Q118
468 112 462T96 456Q86 456 80 462T74 478Q74 488 80 494T96 500Z" />
<glyph unicode="&lt;" horiz-adv-x="604" d="M533 58L91 290V309L533 541V523L105 300L533 76V58Z" />
<glyph unicode="=" horiz-adv-x="604" d="M517 422V408H87V422H517ZM517 218V204H87V218H517Z" />
<glyph unicode="&gt;" horiz-adv-x="604" d="M71 541L513 309V290L71 58V76L499 299L71 523V541Z" />
<glyph unicode="?" horiz-adv-x="473" d="M242 670Q298 670 340 650T407 592T432 501Q432 445 412 403T348 331T234 281V150H218V290Q293 313 336 341T398 408T416 501Q416 574 367 615T242 656Q147 656 101 614T44 495L30 501Q39 554 63 592T132 650T242 670ZM226
39Q236 39 242 33T248 17Q248 7 242 1T226 -5Q216 -5 210 1T204 17Q204 27 210 33T226 39Z" />
<glyph unicode="@" horiz-adv-x="898" d="M474 -171Q381 -171 306 -144T176 -66T94 58T65 224Q65 328 98 407T188 540T320 622T476 650Q571 650 640 619T755 534T823 415T846 280Q846 224 833 174T797 85T741 24T671 2Q624 2 603 36T587 114Q564 71 522 42T417
12Q362 12 323 39T262 112T241 214Q241 269 257 316T304 400T374 456T462 476Q514 476 551 454T609 389T628 289L669 466H685L607 135Q604 124 603 114T602 94Q602 50 625 33T674 16Q716 16 751 52T808 148T830 278Q830 345 809 408T744 523T634 605T476 636Q398
636 327 609T201 530T113 401T81 224Q81 135 109 65T188 -55T312 -131T474 -157Q543 -157 610 -135T719 -74L729 -87Q700 -112 659 -131T571 -160T474 -171ZM414 26Q475 26 520 58T590 148T615 279Q615 345 594 385T538 442T461 460Q420 460 383 442T318 392T273
314T257 214Q257 157 278 115T334 49T414 26Z" />
<glyph unicode="A" horiz-adv-x="586" d="M12 0L284 660H302L574 0H557L310 596L293 642V642L276 597L29 0H12ZM118 234V248H467V234H118Z" />
<glyph unicode="B" horiz-adv-x="609" d="M99 0V660H331Q431 660 482 618T533 493Q533 429 501 389T401 334V333Q472 323 512 282T552 169Q552 86 496 43T331 0H99ZM115 14H331Q432 14 484 53T536 170Q536 248 484 287T331 326H115V14ZM115 340H331Q517 340 517
492Q517 646 331 646H115V340Z" />
<glyph unicode="C" horiz-adv-x="649" d="M610 165Q594 110 558 71T469 11T349 -10Q262 -10 196 31T93 149T56 330Q56 435 92 511T195 628T349 670Q419 670 470 651T555 593T605 496L590 489Q565 573 506 614T349 656Q266 656 204 616T107 503T72 330Q72 230 107
157T204 44T349 4Q444 4 508 48T595 171L610 165Z" />
<glyph unicode="D" horiz-adv-x="683" d="M302 660Q463 660 545 579T627 340Q627 173 545 87T302 0H99V660H302ZM302 14Q454 14 532 97T611 340Q611 491 533 568T302 646H115V14H302Z" />
<glyph unicode="E" horiz-adv-x="583" d="M99 0V660H536V646H115V344H453V330H115V14H553V0H99Z" />
<glyph unicode="F" horiz-adv-x="554" d="M535 646H115V344H453V330H115V0H99V660H535V646Z" />
<glyph unicode="G" horiz-adv-x="676" d="M355 -10Q263 -10 196 31T92 149T56 330Q56 435 92 511T195 628T349 670Q453 670 516 627T605 496L591 489Q566 573 507 614T349 656Q266 656 204 616T107 503T72 330Q72 230 106 157T204 44T355 4Q426 4 472 28T545 91T583
170T594 244V297H353V311H610V0H594V166L595 164Q574 85 512 38T355 -10Z" />
<glyph unicode="H" horiz-adv-x="696" d="M597 660V0H581V660H597ZM115 660V0H99V660H115ZM590 344V330H107V344H590Z" />
<glyph unicode="I" horiz-adv-x="214" d="M115 660V0H99V660H115Z" />
<glyph unicode="J" horiz-adv-x="498" d="M406 660V209Q406 109 357 50T212 -10Q146 -10 103 16T42 90T32 200L48 208Q35 109 78 57T212 4Q301 4 345 59T390 209V660H406Z" />
<glyph unicode="K" horiz-adv-x="557" d="M534 660L270 391L268 389L106 225V248L511 660H534ZM115 660V0H99V660H115ZM270 404L544 0H523L259 390L270 404Z" />
<glyph unicode="L" horiz-adv-x="543" d="M115 14H531V0H99V660H115V14Z" />
<glyph unicode="M" horiz-adv-x="786" d="M687 660V0H671V580L672 637V637L403 0H383L114 637V637L115 580V0H99V660H120L381 48L393 19V19L405 47L666 660H687Z" />
<glyph unicode="N" horiz-adv-x="694" d="M595 660V0H573L140 605L114 644V644L115 587V0H99V660H121L554 55L580 16V16L579 73V660H595Z" />
<glyph unicode="O" horiz-adv-x="714" d="M357 670Q450 670 517 629T621 511T658 330Q658 225 622 149T518 32T357 -10Q265 -10 197 31T93 149T56 330Q56 435 92 511T197 628T357 670ZM357 656Q270 656 206 616T107 503T72 330Q72 230 107 157T206 44T357 4Q445
4 508 44T607 157T642 330Q642 430 607 503T509 616T357 656Z" />
<glyph unicode="P" horiz-adv-x="561" d="M303 660Q374 660 424 638T501 575T528 475Q528 417 501 376T424 313T303 291H115V0H99V660H303ZM303 305Q401 305 456 350T512 475Q512 555 457 600T303 646H115V305H303Z" />
<glyph unicode="Q" horiz-adv-x="714" d="M536 -195Q485 -195 445 -172T380 -105T356 -4Q356 -2 356 -1T356 1H370Q370 0 370 -1T370 -4Q370 -59 391 -99T451 -160T536 -181Q565 -181 593 -173T640 -144L648 -157Q629 -176 601 -185T536 -195ZM357 670Q450 670
517 629T621 511T658 330Q658 225 622 149T518 32T357 -10Q265 -10 197 31T93 149T56 330Q56 435 92 511T197 628T357 670ZM357 656Q270 656 206 616T107 503T72 330Q72 230 107 157T206 44T357 4Q445 4 508 44T607 157T642 330Q642 430 607 503T509 616T357 656Z"
/>
<glyph unicode="R" horiz-adv-x="611" d="M338 660Q435 660 491 612T547 480Q547 396 491 348T338 300H335H115V0H99V660H338ZM338 314Q429 314 480 358T531 480Q531 558 480 602T338 646H115V314H338ZM369 314L576 0H558L356 304L369 314Z" />
<glyph unicode="S" horiz-adv-x="594" d="M295 670Q389 670 451 634T536 517L523 507Q503 584 444 620T295 656Q229 656 181 634T105 575T78 492Q78 434 117 399T252 344L367 320Q465 300 506 264T548 167Q548 114 518 74T434 12T309 -10Q240 -10 184 9T90 67T42
166L57 174Q66 116 101 78T190 22T309 4Q371 4 421 22T502 77T532 167Q532 220 493 253T360 305L245 329Q179 343 139 364T81 417T62 492Q62 539 90 579T170 645T295 670Z" />
<glyph unicode="T" horiz-adv-x="544" d="M533 660V646H280V0H264V646H11V660H533Z" />
<glyph unicode="U" horiz-adv-x="664" d="M581 660V235Q581 117 515 54T332 -10Q215 -10 149 53T83 235V660H99V235Q99 125 161 65T332 4Q442 4 503 64T565 235V660H581Z" />
<glyph unicode="V" horiz-adv-x="576" d="M559 660L299 0H277L17 660H34L261 87L288 18L315 87L542 660H559Z" />
<glyph unicode="W" horiz-adv-x="909" d="M241 0L23 660H40L252 16L444 660H465L657 16L869 660H886L668 0H647L496 502L455 638H454L414 502L262 0H241Z" />
<glyph unicode="X" horiz-adv-x="526" d="M509 0H489L263 326L33 0H12L253 342L33 660H53L263 356L478 660H500L274 340L509 0Z" />
<glyph unicode="Y" horiz-adv-x="512" d="M496 660L264 256V0H248V256L16 660H35L164 434L256 273L348 434L477 660H496Z" />
<glyph unicode="Z" horiz-adv-x="552" d="M43 8L40 14H528V0H29V14L494 652L497 646H36V660H508V646L43 8Z" />
<glyph unicode="[" horiz-adv-x="268" d="M257 716H91V-154H257V-168H76V730H257V716Z" />
<glyph unicode="\" horiz-adv-x="349" d="M36 730H53L314 -70H297L36 730Z" />
<glyph unicode="]" horiz-adv-x="268" d="M11 -154H177V716H11V730H192V-168H11V-154Z" />
<glyph unicode="^" horiz-adv-x="533" d="M37 355L257 730H276L496 355H477L267 714L56 355H37Z" />
<glyph unicode="_" horiz-adv-x="499" d="M499 -97V-111H0V-97H499Z" />
<glyph unicode="`" horiz-adv-x="550" d="M242 730L327 583H312L224 730H242Z" />
<glyph unicode="a" horiz-adv-x="517" d="M407 336Q407 410 366 453T248 496Q185 496 139 469T69 378L56 388Q79 450 128 480T248 510Q304 510 343 490T402 430T423 336V78Q423 6 482 6Q504 6 516 14L515 0Q501 -8 479 -8Q464 -8 447 -1T419 25T407 84V130L414
136Q407 87 376 55T300 6T209 -10Q159 -10 123 4T68 46T49 112Q49 168 86 200T193 245L410 287V273L204 233Q134 220 100 191T65 114Q65 61 102 33T211 4Q241 4 274 13T338 41T388 91T407 165V336Z" />
<glyph unicode="b" horiz-adv-x="585" d="M308 -10Q257 -10 214 9T142 66T100 157L101 159V0H85V730H101V343L100 345Q119 424 175 467T308 510Q377 510 427 479T506 390T534 250Q534 169 506 111T428 21T308 -10ZM305 4Q402 4 460 69T518 250Q518 366 460 431T305
496Q247 496 201 466T128 381T101 250Q101 175 128 120T201 34T305 4Z" />
<glyph unicode="c" horiz-adv-x="524" d="M281 510Q331 510 371 494T438 448T478 373L464 366Q448 428 400 462T281 496Q220 496 172 467T95 382T67 250Q67 174 94 119T169 34T278 4Q325 4 365 21T433 69T468 142L482 137Q474 92 445 59T372 8T278 -10Q212 -10
161 21T81 110T51 250Q51 331 81 389T163 479T281 510Z" />
<glyph unicode="d" horiz-adv-x="585" d="M280 -10Q212 -10 160 21T80 110T51 250Q51 332 79 390T160 479T280 510Q357 510 411 467T485 345L484 343V730H500V0H484V159L485 157Q474 104 445 67T374 10T280 -10ZM283 4Q341 4 386 34T458 119T484 250Q484 326 458
381T387 466T283 496Q186 496 127 431T67 250Q67 134 126 69T283 4Z" />
<glyph unicode="e" horiz-adv-x="534" d="M283 -10Q217 -10 165 21T82 110T51 250Q51 332 81 390T161 479T275 510Q341 510 388 480T460 395T486 262Q486 261 486 259T486 255H59V270H479L472 264Q471 367 421 431T275 496Q217 496 170 467T95 382T67 250Q67 173
95 118T172 34T283 4Q344 4 394 34T469 116L482 109Q465 72 435 46T366 5T283 -10Z" />
<glyph unicode="f" horiz-adv-x="320" d="M245 735Q274 735 292 727T322 704L315 692Q302 708 286 714T245 721Q190 721 159 685T128 583V500V491V0H112V583Q112 619 121 647T147 694T189 724T245 735ZM314 500V486H12V500H314Z" />
<glyph unicode="g" horiz-adv-x="496" d="M491 592L496 578Q495 578 495 578T493 578Q444 578 418 547T392 465L379 470Q379 507 392 534T430 576T488 592Q490 592 490 592T491 592ZM326 37Q403 37 447 7T492 -73Q492 -115 464 -147T384 -197T264 -215Q157 -215
96 -178T34 -81Q34 -37 68 -6T158 32L157 30Q127 38 102 59T76 117Q76 159 108 183T186 207L237 199H205Q161 199 127 180T92 119Q92 78 125 58T203 37H326ZM266 -201Q325 -201 372 -185T448 -141T476 -75Q476 -31 435 -4T325 23H197Q133 23 92 -5T50 -79Q50 -133
108 -167T266 -201ZM258 510Q317 510 361 491T429 436T454 353Q454 306 430 271T361 216T258 196Q169 196 115 239T60 353Q60 401 84 436T154 490T258 510ZM258 496Q176 496 126 457T76 353Q76 289 126 250T258 210Q340 210 389 249T438 353Q438 418 389 457T258
496Z" />
<glyph unicode="h" horiz-adv-x="574" d="M85 0V730H101V368Q118 430 174 470T309 511Q367 511 408 490T472 428T495 330V1H479V328Q479 408 433 452T306 497Q248 497 202 470T128 399T101 302V0H85Z" />
<glyph unicode="i" horiz-adv-x="186" d="M93 598Q83 598 77 604T71 620Q71 630 77 636T93 642Q103 642 109 636T115 620Q115 610 109 604T93 598ZM101 500V0H85V500H101Z" />
<glyph unicode="j" horiz-adv-x="186" d="M93 598Q83 598 77 604T71 620Q71 630 77 636T93 642Q103 642 109 636T115 620Q115 610 109 604T93 598ZM101 500V-64Q101 -110 85 -144T39 -196T-31 -215Q-52 -215 -71 -209T-102 -193L-97 -179Q-85 -190 -67 -195T-31
-201Q22 -201 53 -164T85 -64V500H101Z" />
<glyph unicode="k" horiz-adv-x="482" d="M465 500L241 292L237 289L93 155V177L441 500H465ZM101 730V0H85V730H101ZM240 302L470 0H450L228 291L240 302Z" />
<glyph unicode="l" horiz-adv-x="237" d="M97 730V107Q97 52 115 28T170 4Q192 4 204 7T228 16V2Q218 -3 204 -6T170 -10Q126 -10 104 18T81 107V730H97Z" />
<glyph unicode="m" horiz-adv-x="968" d="M85 0V500H101V367Q118 429 174 469T309 510Q387 510 435 471T493 361Q503 404 532 438T605 492T703 512Q761 512 802 491T866 429T889 331V2H873V329Q873 409 827 453T700 498Q642 498 596 471T522 400T495 303V0H479V327Q479
407 433 451T306 496Q248 496 202 469T128 398T101 301V0H85Z" />
<glyph unicode="n" horiz-adv-x="574" d="M85 0V500H101V360L100 363Q111 405 140 438T212 491T309 510Q367 510 408 489T472 427T495 329V0H479V327Q479 407 433 451T306 496Q248 496 202 469T128 398T101 301V0H85Z" />
<glyph unicode="o" horiz-adv-x="569" d="M285 510Q354 510 406 479T488 390T518 250Q518 169 489 111T407 21T285 -10Q216 -10 164 21T81 110T51 250Q51 331 81 389T163 479T285 510ZM285 496Q221 496 172 467T95 382T67 250Q67 174 95 119T172 34T285 4Q349
4 398 33T474 118T502 250Q502 327 475 382T398 466T285 496Z" />
<glyph unicode="p" horiz-adv-x="585" d="M85 -210V500H101V341L100 343Q112 396 141 433T214 490T308 510Q377 510 427 479T506 390T534 250Q534 169 506 111T428 21T308 -10Q232 -10 176 33T100 155L101 157V-210H85ZM305 4Q402 4 460 69T518 250Q518 366 460
431T305 496Q247 496 201 466T128 381T101 250Q101 175 127 120T200 34T305 4Z" />
<glyph unicode="q" horiz-adv-x="585" d="M484 -210V157L485 155Q473 103 444 66T373 10T280 -10Q212 -10 160 21T80 110T51 250Q51 332 79 390T160 479T280 510Q332 510 374 491T445 434T485 343L484 341V500H500V-210H484ZM283 4Q342 4 387 34T458 119T484 250Q484
326 458 381T387 466T283 496Q186 496 127 431T67 250Q67 134 126 69T283 4Z" />
<glyph unicode="r" horiz-adv-x="343" d="M85 0V500H101V370Q118 429 161 469T265 510Q292 510 309 504T336 486L327 474Q317 484 304 490T263 496Q217 496 180 467T122 390T101 291V0H85Z" />
<glyph unicode="s" horiz-adv-x="479" d="M240 -10Q162 -10 107 20T37 111L52 118Q65 62 116 33T243 4Q323 4 369 36T416 124Q416 162 392 188T301 228L187 253Q118 268 89 299T59 374Q59 413 83 443T149 492T244 510Q321 510 368 480T429 385L415 377Q402 439
359 467T244 496Q195 496 157 481T97 439T75 378Q75 340 100 312T188 269L304 243Q375 227 403 198T432 124Q432 83 409 53T342 6T240 -10Z" />
<glyph unicode="t" horiz-adv-x="329" d="M127 635V126Q127 66 152 35T231 4Q257 4 279 13T319 41L327 28Q312 12 287 1T231 -10Q191 -10 164 5T124 51T111 126V630L127 635ZM320 500V486H11V500H320Z" />
<glyph unicode="u" horiz-adv-x="564" d="M254 -10Q199 -10 160 10T100 71T79 167V500H95V169Q95 90 137 47T257 4Q311 4 350 23T414 72T451 135T463 196V500H479V0H463V133Q446 72 390 31T254 -10Z" />
<glyph unicode="v" horiz-adv-x="481" d="M441 500H459L249 0H232L22 500H40L241 20L441 500Z" />
<glyph unicode="w" horiz-adv-x="779" d="M733 500H750L584 0H568L390 477L211 0H195L29 500H46L203 23L381 500H398L576 23L733 500Z" />
<glyph unicode="x" horiz-adv-x="472" d="M50 500L237 273L241 268L462 0H438L231 251L227 256L26 500H50ZM433 500L244 259L237 250L41 0H19L227 265L230 269L411 500H433Z" />
<glyph unicode="y" horiz-adv-x="481" d="M459 500L210 -101Q192 -144 173 -169T129 -204T74 -215Q48 -215 28 -207T-4 -183L5 -170Q16 -187 35 -194T75 -201Q114 -201 142 -180T195 -98L235 -1L180 128L22 500H40L225 60L243 18L260 61L441 500H459Z" />
<glyph unicode="z" horiz-adv-x="472" d="M39 0V14L370 437L410 486H342H31V500H429V486L117 83L60 14H142H445V0H39Z" />
<glyph unicode="{" horiz-adv-x="259" d="M239 -170Q203 -170 177 -157T136 -118T122 -58V185Q122 229 92 254T8 279V292Q61 292 91 317T122 386V628Q122 663 136 688T176 726T239 740V726Q192 726 165 700T138 628V386Q138 348 118 322T60 286Q97 276 117 250T138
185V-58Q138 -104 165 -130T239 -156V-170Z" />
<glyph unicode="|" horiz-adv-x="167" d="M91 730V-168H76V730H91Z" />
<glyph unicode="}" horiz-adv-x="259" d="M20 740Q56 740 82 727T123 688T137 628V385Q137 341 167 316T251 291V278Q198 278 168 253T137 184V-58Q137 -93 123 -118T83 -156T20 -170V-156Q67 -156 94 -130T121 -58V184Q121 222 141 248T199 284Q162 294 142 320T121
385V628Q121 674 94 700T20 726V740Z" />
<glyph unicode="~" horiz-adv-x="479" d="M436 395Q429 348 406 325T341 301Q308 301 283 312T236 338T191 364T138 375Q103 375 85 356T59 295H43Q50 342 73 365T138 389Q171 389 196 378T243 352T288 326T341 315Q376 315 394 335T420 395H436Z" />
<glyph unicode="&#xa0;" horiz-adv-x="281" />
<glyph unicode="&#xa1;" horiz-adv-x="174" d="M79 -160V198V330H95V198V-160H79ZM87 461Q77 461 71 467T65 483Q65 493 71 499T87 505Q97 505 103 499T109 483Q109 473 103 467T87 461Z" />
<glyph unicode="&#xa2;" horiz-adv-x="537" d="M283 -10Q211 -10 160 21T83 110T56 250Q56 331 83 389T162 479T286 510Q336 510 376 494T443 448T483 373L469 366Q453 428 405 462T286 496Q185 496 129 431T72 250Q72 174 96 119T168 34T283 4Q330 4 370 21T438
69T473 142L487 137Q479 92 450 59T377 8T283 -10ZM270 -100V600H284V-100H270Z" />
<glyph unicode="&#xa3;" horiz-adv-x="573" d="M94 303V317H447V303H94ZM134 -4Q91 -4 66 14T41 62Q41 83 53 98T86 122T133 131Q173 131 200 119T250 89T296 53T348 22T418 10Q467 10 494 38T523 121H537Q537 77 521 50T478 9T418 -4Q375 -4 345 8T291 38T245
74T196 105T132 117Q100 117 79 102T57 62Q57 38 77 24T134 10Q177 10 204 27T245 75T259 144Q259 183 245 223T201 316Q180 354 167 381T149 434T143 488Q143 543 167 584T234 647T335 670Q409 670 455 631T508 525L493 519Q487 581 444 618T335 656Q254 656 207
611T159 488Q159 462 164 439T182 388T216 322Q245 269 259 227T274 147Q274 114 265 86T238 38T194 7T134 -4Z" />
<glyph unicode="&#xa4;" horiz-adv-x="602" d="M301 516Q354 516 393 494T455 430T477 333Q477 277 455 236T394 171T301 148Q247 148 208 171T146 235T124 333Q124 389 146 430T207 493T301 516ZM301 502Q228 502 184 456T140 333Q140 254 184 208T301 162Q375
162 418 208T461 333Q461 410 418 456T301 502ZM74 569L180 462L168 451L62 557L74 569ZM170 211L182 199L74 91L62 103L170 211ZM431 211L540 102L529 91L421 199L431 211ZM529 569L540 558L433 450L422 463L529 569Z" />
<glyph unicode="&#xa5;" horiz-adv-x="568" d="M276 0V133H70V147H276V256H70V270H233H270L44 660H63L269 297L283 273H285L299 297L505 660H524L298 270H335H499V256H292V147H499V133H292V0H276Z" />
<glyph unicode="&#xa6;" horiz-adv-x="167" d="M91 730V364H76V730H91ZM91 198V-168H76V198H91Z" />
<glyph unicode="&#xa7;" horiz-adv-x="536" d="M345 139L338 148Q373 153 407 167T464 205T487 266Q487 313 457 336T355 375L260 396Q200 409 165 426T115 468T99 531Q99 569 119 600T180 651T280 670Q346 670 392 650T455 585L442 576Q428 619 385 637T280 656Q201
656 158 621T115 532Q115 497 128 475T174 437T262 410L356 390Q406 380 438 365T487 326T503 266Q503 229 482 203T424 160T345 139ZM272 -110Q206 -110 160 -90T97 -25L110 -16Q124 -59 167 -77T272 -96Q352 -96 394 -61T437 28Q437 81 403 108T297 149L215 165Q152
178 116 194T64 235T49 294Q49 331 70 357T128 400T207 421L214 412Q179 407 145 393T88 355T65 294Q65 248 98 223T219 180L302 163Q378 147 415 118T453 29Q453 -8 433 -40T372 -91T272 -110Z" />
<glyph unicode="&#xa8;" horiz-adv-x="550" d="M183 642Q193 642 199 636T205 620Q205 610 199 604T183 598Q173 598 167 604T161 620Q161 630 167 636T183 642ZM367 642Q377 642 383 636T389 620Q389 610 383 604T367 598Q357 598 351 604T345 620Q345 630 351
636T367 642Z" />
<glyph unicode="&#xa9;" horiz-adv-x="784" d="M393 -10Q293 -10 218 34T102 156T60 330Q60 427 101 504T218 625T392 670Q492 670 566 626T682 504T724 330Q724 233 683 156T567 35T393 -10ZM392 4Q487 4 558 47T668 163T708 330Q708 423 668 496T557 613T392
656Q298 656 227 613T116 497T76 330Q76 237 115 164T226 47T392 4ZM404 143Q319 143 271 192T222 328Q222 415 270 464T404 513Q461 513 499 488T553 413L539 406Q525 453 491 476T403 499Q326 499 282 454T238 328Q238 248 282 203T403 157Q456 157 494 185T543
259L558 253Q545 203 503 173T404 143Z" />
<glyph unicode="&#xaa;" horiz-adv-x="376" d="M151 326Q107 326 79 348T51 410Q51 448 76 470T156 502L290 525V511L163 489Q110 480 88 461T66 409Q66 378 89 359T151 340Q179 340 210 350T264 386T287 453V556Q287 600 261 625T185 651Q139 651 110 634T67
579L54 584Q67 623 101 644T185 665Q240 665 271 638T303 558V383Q303 361 311 351T336 340Q352 340 361 346V332Q356 329 350 328T335 326Q318 326 303 337T287 385V413L293 420Q285 386 262 365T209 335T151 326ZM52 223V237H349V223H52Z" />
<glyph unicode="&#xab;" horiz-adv-x="379" d="M211 461L66 265L211 69H190L46 265L190 461H211ZM329 461L184 265L329 69H308L164 265L308 461H329Z" />
<glyph unicode="&#xac;" horiz-adv-x="604" d="M527 317V176H511V317H527ZM527 323V309H77V323H527Z" />
<glyph unicode="&#xad;" horiz-adv-x="417" d="M349 278V262H68V278H349Z" />
<glyph unicode="&#xae;" horiz-adv-x="784" d="M392 -10Q293 -10 218 34T102 156T60 330Q60 427 101 504T218 625T392 670Q492 670 566 626T682 504T724 330Q724 233 683 156T567 35T392 -10ZM537 143L426 316L440 322L555 143H537ZM392 4Q487 4 558 47T668 163T708
330Q708 423 668 496T557 613T392 656Q298 656 227 613T116 497T76 330Q76 237 115 164T226 47T392 4ZM275 143V513H430Q470 513 496 502T535 468T549 412Q549 363 519 337T430 311H291V143H275ZM291 324H430Q482 324 508 346T534 412Q534 456 508 477T430 499H291V324Z"
/>
<glyph unicode="&#xaf;" horiz-adv-x="550" d="M419 619V605H131V619H419Z" />
<glyph unicode="&#xb0;" horiz-adv-x="370" d="M185 400Q145 400 115 417T68 464T51 535Q51 575 67 605T114 653T185 670Q226 670 256 653T302 606T319 535Q319 495 303 465T256 417T185 400ZM185 414Q239 414 271 448T303 535Q303 588 271 622T185 656Q131 656
99 622T67 535Q67 482 99 448T185 414Z" />
<glyph unicode="&#xb1;" horiz-adv-x="604" d="M310 622V106H295V622H310ZM527 374V360H77V374H527ZM527 14V0H77V14H527Z" />
<glyph unicode="&#xb2;" horiz-adv-x="349" d="M47 333V348Q76 372 104 396T161 445Q191 471 217 498T259 556T276 617Q276 664 248 692T169 721Q118 721 88 691T55 609L40 612Q45 665 78 700T169 735Q207 735 234 721T277 680T292 616Q292 584 274 551T228 488T170
433Q145 412 120 391T69 348V347Q76 347 82 347T95 347H308V333H47Z" />
<glyph unicode="&#xb3;" horiz-adv-x="326" d="M152 735Q207 735 237 705T267 630Q267 606 259 587T235 555T194 534V532Q220 529 238 516T267 482T277 438Q277 404 261 379T216 341T152 327Q100 327 68 351T24 418L37 426Q46 388 74 365T154 341Q201 341 231
366T261 437Q261 484 232 505T152 527Q149 527 145 527T134 526V540Q141 539 145 539T154 539Q195 539 223 563T251 630Q251 672 226 696T153 721Q111 721 85 701T50 648L36 655Q47 691 78 713T152 735Z" />
<glyph unicode="&#xb4;" horiz-adv-x="600" d="M334 730H352L264 583H249L334 730Z" />
<glyph unicode="&#xb5;" horiz-adv-x="570" d="M85 -210V500H101V169Q101 90 146 47T263 4Q323 4 369 31T442 102T469 199V500H485V0H469V133Q452 72 396 31T260 -10Q205 -10 163 17T101 94V94V-210H85Z" />
<glyph unicode="&#xb6;" horiz-adv-x="516" d="M264 -100V254Q194 254 141 279T59 350T30 457Q30 518 58 563T138 634T259 660H435V-100H419V646H280V-100H264ZM264 268V646Q199 646 150 623T73 557T46 457Q46 400 73 358T149 292T264 268Z" />
<glyph unicode="&#xb7;" horiz-adv-x="192" d="M96 382Q106 382 112 376T118 360Q118 350 112 344T96 338Q86 338 80 344T74 360Q74 370 80 376T96 382Z" />
<glyph unicode="&#xb8;" horiz-adv-x="600" d="M278 3H299Q350 -22 370 -50T391 -114Q391 -154 367 -178T303 -202Q273 -202 251 -192T209 -160L217 -148Q237 -170 257 -179T303 -189Q335 -189 355 -169T376 -115Q376 -83 356 -56T278 3Z" />
<glyph unicode="&#xb9;" horiz-adv-x="214" d="M133 730H146V333H130V643Q130 660 130 676T132 708Q113 682 82 664T21 633V646Q39 652 61 664T103 694T133 730Z" />
<glyph unicode="&#xba;" horiz-adv-x="364" d="M182 327Q110 327 77 367T43 496Q43 584 76 624T182 665Q254 665 287 625T321 496Q321 408 288 368T182 327ZM49 223V237H315V223H49ZM182 341Q246 341 275 378T305 496Q305 576 276 613T182 651Q118 651 89 614T59
496Q59 416 88 379T182 341Z" />
<glyph unicode="&#xbb;" horiz-adv-x="379" d="M168 69L313 265L168 461H189L333 265L189 69H168ZM50 69L195 265L50 461H71L215 265L71 69H50Z" />
<glyph unicode="&#xbc;" horiz-adv-x="675" d="M133 921H146V524H130V834Q130 851 130 867T132 899Q113 873 82 855T21 824V837Q39 843 61 855T103 885T133 921ZM73 0L538 660H557L92 0H73ZM646 130V116H565V-4H549V116H351V130L543 393H565V130H646ZM368 130H549V335Q549
346 549 356T549 377H548Q540 366 532 355T516 332L368 130Z" />
<glyph unicode="&#xbd;" horiz-adv-x="765" d="M133 921H146V524H130V834Q130 851 130 867T132 899Q113 873 82 855T21 824V837Q39 843 61 855T103 885T133 921ZM73 0L538 660H557L92 0H73ZM463 -4V11Q492 35 520 59T577 108Q607 134 633 161T675 219T692 280Q692
327 664 355T585 384Q534 384 504 354T471 272L456 275Q461 328 494 363T585 398Q623 398 650 384T693 343T708 279Q708 247 690 214T644 151T586 96Q561 75 536 54T485 11V10Q492 10 498 10T511 10H724V-4H463Z" />
<glyph unicode="&#xbe;" horiz-adv-x="787" d="M152 926Q207 926 237 896T267 821Q267 797 259 778T235 746T194 725V723Q220 720 238 707T267 673T277 629Q277 595 261 570T216 532T152 518Q100 518 68 542T24 609L37 617Q46 579 74 556T154 532Q201 532 231
557T261 628Q261 675 232 696T152 718Q149 718 145 718T134 717V731Q141 730 145 730T154 730Q195 730 223 754T251 821Q251 863 226 887T153 912Q111 912 85 892T50 839L36 846Q47 882 78 904T152 926ZM185 0L650 660H669L204 0H185ZM758 130V116H677V-4H661V116H463V130L655
393H677V130H758ZM480 130H661V335Q661 346 661 356T661 377H660Q652 366 644 355T628 332L480 130Z" />
<glyph unicode="&#xbf;" horiz-adv-x="469" d="M229 -175Q173 -175 131 -155T64 -97T39 -6Q39 50 59 92T123 164T237 214V345H253V205Q178 182 135 154T73 87T55 -6Q55 -79 104 -120T229 -161Q324 -161 370 -119T427 0L441 -6Q432 -59 408 -97T339 -155T229 -175ZM245
456Q235 456 229 462T223 478Q223 488 229 494T245 500Q255 500 261 494T267 478Q267 468 261 462T245 456Z" />
<glyph unicode="&#xc0;" horiz-adv-x="586" d="M12 0L284 660H302L574 0H557L310 596L293 642V642L276 597L29 0H12ZM118 234V248H467V234H118ZM225 891L300 743H285L207 891H225Z" />
<glyph unicode="&#xc1;" horiz-adv-x="586" d="M12 0L284 660H302L574 0H557L310 596L293 642V642L276 597L29 0H12ZM118 234V248H467V234H118ZM362 891H380L302 743H287L362 891Z" />
<glyph unicode="&#xc2;" horiz-adv-x="586" d="M12 0L284 660H302L574 0H557L310 596L293 642V642L276 597L29 0H12ZM118 234V248H467V234H118ZM412 743H395L293 872L191 743H174L283 885H303L412 743Z" />
<glyph unicode="&#xc3;" horiz-adv-x="586" d="M12 0L284 660H302L574 0H557L310 596L293 642V642L276 597L29 0H12ZM118 234V248H467V234H118ZM452 843Q447 815 436 796T408 768T369 759Q343 759 325 769T291 793T259 817T222 828Q193 828 176 810T151 758H136Q144
801 167 821T223 842Q247 842 265 832T298 808T330 784T369 773Q399 773 414 791T437 843H452Z" />
<glyph unicode="&#xc4;" horiz-adv-x="586" d="M12 0L284 660H302L574 0H557L310 596L293 642V642L276 597L29 0H12ZM118 234V248H467V234H118ZM200 802Q210 802 216 796T222 780Q222 770 216 764T200 758Q190 758 184 764T178 780Q178 790 184 796T200 802ZM384
802Q394 802 400 796T406 780Q406 770 400 764T384 758Q374 758 368 764T362 780Q362 790 368 796T384 802Z" />
<glyph unicode="&#xc5;" horiz-adv-x="586" d="M12 0L284 660H302L574 0H557L310 596L293 642V642L276 597L29 0H12ZM118 234V248H467V234H118ZM291 806Q326 806 349 783T373 726Q373 692 350 669T291 646Q256 646 233 669T209 726Q209 760 232 783T291 806ZM291
792Q263 792 244 773T225 726Q225 698 244 679T291 660Q319 660 338 679T357 726Q357 754 338 773T291 792Z" />
<glyph unicode="&#xc6;" horiz-adv-x="885" d="M454 14H855V0H438V254H174L15 0H-8L412 660H839V646H454V342H762V328H454V14ZM183 268H438V646H420L183 268Z" />
<glyph unicode="&#xc7;" horiz-adv-x="649" d="M610 165Q594 110 558 71T469 11T349 -10Q262 -10 196 31T93 149T56 330Q56 435 92 511T195 628T349 670Q419 670 470 651T555 593T605 496L590 489Q565 573 506 614T349 656Q266 656 204 616T107 503T72 330Q72
230 107 157T204 44T349 4Q444 4 508 48T595 171L610 165ZM303 3H324Q375 -22 395 -50T416 -114Q416 -154 392 -178T328 -202Q298 -202 276 -192T234 -160L242 -148Q262 -170 282 -179T328 -189Q360 -189 380 -169T401 -115Q401 -83 381 -56T303 3Z" />
<glyph unicode="&#xc8;" horiz-adv-x="583" d="M99 0V660H536V646H115V344H453V330H115V14H553V0H99ZM250 891L325 743H310L232 891H250Z" />
<glyph unicode="&#xc9;" horiz-adv-x="583" d="M99 0V660H536V646H115V344H453V330H115V14H553V0H99ZM386 891H404L326 743H311L386 891Z" />
<glyph unicode="&#xca;" horiz-adv-x="583" d="M99 0V660H536V646H115V344H453V330H115V14H553V0H99ZM437 743H420L318 872L216 743H199L308 885H328L437 743Z" />
<glyph unicode="&#xcb;" horiz-adv-x="583" d="M99 0V660H536V646H115V344H453V330H115V14H553V0H99ZM225 802Q235 802 241 796T247 780Q247 770 241 764T225 758Q215 758 209 764T203 780Q203 790 209 796T225 802ZM409 802Q419 802 425 796T431 780Q431 770
425 764T409 758Q399 758 393 764T387 780Q387 790 393 796T409 802Z" />
<glyph unicode="&#xcc;" horiz-adv-x="214" d="M115 660V0H99V660H115ZM39 891L114 743H99L21 891H39Z" />
<glyph unicode="&#xcd;" horiz-adv-x="214" d="M115 660V0H99V660H115ZM176 891H194L116 743H101L176 891Z" />
<glyph unicode="&#xce;" horiz-adv-x="214" d="M115 660V0H99V660H115ZM226 743H209L107 872L5 743H-12L97 885H117L226 743Z" />
<glyph unicode="&#xcf;" horiz-adv-x="214" d="M48 802Q58 802 64 796T70 780Q70 770 64 764T48 758Q38 758 32 764T26 780Q26 790 32 796T48 802ZM166 802Q176 802 182 796T188 780Q188 770 182 764T166 758Q156 758 150 764T144 780Q144 790 150 796T166 802ZM115
660V0H99V660H115Z" />
<glyph unicode="&#xd0;" horiz-adv-x="691" d="M5 327V341H330V327H5ZM310 660Q471 660 553 579T635 340Q635 173 553 87T310 0H107V660H310ZM310 14Q462 14 540 97T619 340Q619 491 541 568T310 646H123V14H310Z" />
<glyph unicode="&#xd1;" horiz-adv-x="694" d="M595 660V0H573L140 605L114 644V644L115 587V0H99V660H121L554 55L580 16V16L579 73V660H595ZM512 843Q507 815 496 796T468 768T429 759Q403 759 385 769T351 793T319 817T282 828Q253 828 236 810T211 758H196Q204
801 227 821T283 842Q307 842 325 832T358 808T390 784T429 773Q459 773 474 791T497 843H512Z" />
<glyph unicode="&#xd2;" horiz-adv-x="714" d="M357 670Q450 670 517 629T621 511T658 330Q658 225 622 149T518 32T357 -10Q265 -10 197 31T93 149T56 330Q56 435 92 511T197 628T357 670ZM357 656Q270 656 206 616T107 503T72 330Q72 230 107 157T206 44T357
4Q445 4 508 44T607 157T642 330Q642 430 607 503T509 616T357 656ZM289 891L364 743H349L271 891H289Z" />
<glyph unicode="&#xd3;" horiz-adv-x="714" d="M357 670Q450 670 517 629T621 511T658 330Q658 225 622 149T518 32T357 -10Q265 -10 197 31T93 149T56 330Q56 435 92 511T197 628T357 670ZM357 656Q270 656 206 616T107 503T72 330Q72 230 107 157T206 44T357
4Q445 4 508 44T607 157T642 330Q642 430 607 503T509 616T357 656ZM426 891H444L366 743H351L426 891Z" />
<glyph unicode="&#xd4;" horiz-adv-x="714" d="M357 670Q450 670 517 629T621 511T658 330Q658 225 622 149T518 32T357 -10Q265 -10 197 31T93 149T56 330Q56 435 92 511T197 628T357 670ZM357 656Q270 656 206 616T107 503T72 330Q72 230 107 157T206 44T357
4Q445 4 508 44T607 157T642 330Q642 430 607 503T509 616T357 656ZM476 743H459L357 872L255 743H238L347 885H367L476 743Z" />
<glyph unicode="&#xd5;" horiz-adv-x="714" d="M357 670Q450 670 517 629T621 511T658 330Q658 225 622 149T518 32T357 -10Q265 -10 197 31T93 149T56 330Q56 435 92 511T197 628T357 670ZM357 656Q270 656 206 616T107 503T72 330Q72 230 107 157T206 44T357
4Q445 4 508 44T607 157T642 330Q642 430 607 503T509 616T357 656ZM516 843Q511 815 500 796T472 768T433 759Q407 759 389 769T355 793T323 817T286 828Q257 828 240 810T215 758H200Q208 801 231 821T287 842Q311 842 329 832T362 808T394 784T433 773Q463 773
478 791T501 843H516Z" />
<glyph unicode="&#xd6;" horiz-adv-x="714" d="M357 670Q450 670 517 629T621 511T658 330Q658 225 622 149T518 32T357 -10Q265 -10 197 31T93 149T56 330Q56 435 92 511T197 628T357 670ZM357 656Q270 656 206 616T107 503T72 330Q72 230 107 157T206 44T357
4Q445 4 508 44T607 157T642 330Q642 430 607 503T509 616T357 656ZM264 802Q274 802 280 796T286 780Q286 770 280 764T264 758Q254 758 248 764T242 780Q242 790 248 796T264 802ZM448 802Q458 802 464 796T470 780Q470 770 464 764T448 758Q438 758 432 764T426
780Q426 790 432 796T448 802Z" />
<glyph unicode="&#xd7;" horiz-adv-x="604" d="M467 134L480 147L137 490L124 477L467 134ZM137 134L480 477L467 490L124 147L137 134Z" />
<glyph unicode="&#xd8;" horiz-adv-x="714" d="M170 59L160 71L542 599L555 590L170 59ZM86 -30L160 71L170 59L106 -30H86ZM555 590L542 599L608 690H628L555 590ZM357 670Q450 670 517 629T621 511T658 330Q658 225 622 149T518 32T357 -10Q265 -10 197 31T93
149T56 330Q56 435 92 511T197 628T357 670ZM357 656Q270 656 206 616T107 503T72 330Q72 230 107 157T206 44T357 4Q445 4 508 44T607 157T642 330Q642 430 607 503T509 616T357 656Z" />
<glyph unicode="&#xd9;" horiz-adv-x="664" d="M581 660V235Q581 117 515 54T332 -10Q215 -10 149 53T83 235V660H99V235Q99 125 161 65T332 4Q442 4 503 64T565 235V660H581ZM314 891L389 743H374L296 891H314Z" />
<glyph unicode="&#xda;" horiz-adv-x="664" d="M581 660V235Q581 117 515 54T332 -10Q215 -10 149 53T83 235V660H99V235Q99 125 161 65T332 4Q442 4 503 64T565 235V660H581ZM401 851H419L341 703H326L401 851Z" />
<glyph unicode="&#xdb;" horiz-adv-x="664" d="M581 660V235Q581 117 515 54T332 -10Q215 -10 149 53T83 235V660H99V235Q99 125 161 65T332 4Q442 4 503 64T565 235V660H581ZM451 703H434L332 832L230 703H213L322 845H342L451 703Z" />
<glyph unicode="&#xdc;" horiz-adv-x="664" d="M581 660V235Q581 117 515 54T332 -10Q215 -10 149 53T83 235V660H99V235Q99 125 161 65T332 4Q442 4 503 64T565 235V660H581ZM239 762Q249 762 255 756T261 740Q261 730 255 724T239 718Q229 718 223 724T217 740Q217
750 223 756T239 762ZM423 762Q433 762 439 756T445 740Q445 730 439 724T423 718Q413 718 407 724T401 740Q401 750 407 756T423 762Z" />
<glyph unicode="&#xdd;" horiz-adv-x="512" d="M496 660L264 256V0H248V256L16 660H35L164 434L256 273L348 434L477 660H496ZM325 851H343L265 703H250L325 851Z" />
<glyph unicode="&#xde;" horiz-adv-x="567" d="M294 525Q411 525 469 479T527 340Q527 249 469 202T294 155H108V169H303Q511 169 511 340Q511 425 459 468T303 511H108V525H294ZM115 660V0H99V660H115Z" />
<glyph unicode="&#xdf;" horiz-adv-x="555" d="M326 378Q383 375 423 351T485 286T506 185Q506 127 485 83T424 15T330 -10Q290 -10 260 0T209 28L219 40Q242 21 269 12T330 3Q405 3 447 53T490 185Q490 281 435 325T292 370H248V384H292Q366 384 413 431T461
563Q461 637 416 679T293 721Q199 721 150 667T100 505V0H85V516Q85 588 108 636T178 710T293 735Q350 735 391 715T454 655T477 561Q477 507 457 467T402 404T326 379V378Z" />
<glyph unicode="&#xe0;" horiz-adv-x="517" d="M407 336Q407 410 366 453T248 496Q185 496 139 469T69 378L56 388Q79 450 128 480T248 510Q304 510 343 490T402 430T423 336V78Q423 6 482 6Q504 6 516 14L515 0Q501 -8 479 -8Q464 -8 447 -1T419 25T407 84V130L414
136Q407 87 376 55T300 6T209 -10Q159 -10 123 4T68 46T49 112Q49 168 86 200T193 245L410 287V273L204 233Q134 220 100 191T65 114Q65 61 102 33T211 4Q241 4 274 13T338 41T388 91T407 165V336ZM168 730L253 583H238L150 730H168Z" />
<glyph unicode="&#xe1;" horiz-adv-x="517" d="M407 336Q407 410 366 453T248 496Q185 496 139 469T69 378L56 388Q79 450 128 480T248 510Q304 510 343 490T402 430T423 336V78Q423 6 482 6Q504 6 516 14L515 0Q501 -8 479 -8Q464 -8 447 -1T419 25T407 84V130L414
136Q407 87 376 55T300 6T209 -10Q159 -10 123 4T68 46T49 112Q49 168 86 200T193 245L410 287V273L204 233Q134 220 100 191T65 114Q65 61 102 33T211 4Q241 4 274 13T338 41T388 91T407 165V336ZM320 730H338L250 583H235L320 730Z" />
<glyph unicode="&#xe2;" horiz-adv-x="517" d="M407 336Q407 410 366 453T248 496Q185 496 139 469T69 378L56 388Q79 450 128 480T248 510Q304 510 343 490T402 430T423 336V78Q423 6 482 6Q504 6 516 14L515 0Q501 -8 479 -8Q464 -8 447 -1T419 25T407 84V130L414
136Q407 87 376 55T300 6T209 -10Q159 -10 123 4T68 46T49 112Q49 168 86 200T193 245L410 287V273L204 233Q134 220 100 191T65 114Q65 61 102 33T211 4Q241 4 274 13T338 41T388 91T407 165V336ZM359 583H342L242 712L142 583H125L233 725H251L359 583Z" />
<glyph unicode="&#xe3;" horiz-adv-x="517" d="M407 336Q407 410 366 453T248 496Q185 496 139 469T69 378L56 388Q79 450 128 480T248 510Q304 510 343 490T402 430T423 336V78Q423 6 482 6Q504 6 516 14L515 0Q501 -8 479 -8Q464 -8 447 -1T419 25T407 84V130L414
136Q407 87 376 55T300 6T209 -10Q159 -10 123 4T68 46T49 112Q49 168 86 200T193 245L410 287V273L204 233Q134 220 100 191T65 114Q65 61 102 33T211 4Q241 4 274 13T338 41T388 91T407 165V336ZM401 683Q396 655 385 636T357 608T318 599Q292 599 274 609T240
633T208 657T171 668Q142 668 125 650T100 598H85Q93 641 116 661T172 682Q196 682 214 672T247 648T279 624T318 613Q348 613 363 631T386 683H401Z" />
<glyph unicode="&#xe4;" horiz-adv-x="517" d="M407 336Q407 410 366 453T248 496Q185 496 139 469T69 378L56 388Q79 450 128 480T248 510Q304 510 343 490T402 430T423 336V78Q423 6 482 6Q504 6 516 14L515 0Q501 -8 479 -8Q464 -8 447 -1T419 25T407 84V130L414
136Q407 87 376 55T300 6T209 -10Q159 -10 123 4T68 46T49 112Q49 168 86 200T193 245L410 287V273L204 233Q134 220 100 191T65 114Q65 61 102 33T211 4Q241 4 274 13T338 41T388 91T407 165V336ZM149 642Q159 642 165 636T171 620Q171 610 165 604T149 598Q139
598 133 604T127 620Q127 630 133 636T149 642ZM333 642Q343 642 349 636T355 620Q355 610 349 604T333 598Q323 598 317 604T311 620Q311 630 317 636T333 642Z" />
<glyph unicode="&#xe5;" horiz-adv-x="517" d="M407 336Q407 410 366 453T248 496Q185 496 139 469T69 378L56 388Q79 450 128 480T248 510Q304 510 343 490T402 430T423 336V78Q423 6 482 6Q504 6 516 14L515 0Q501 -8 479 -8Q464 -8 447 -1T419 25T407 84V130L414
136Q407 87 376 55T300 6T209 -10Q159 -10 123 4T68 46T49 112Q49 168 86 200T193 245L410 287V273L204 233Q134 220 100 191T65 114Q65 61 102 33T211 4Q241 4 274 13T338 41T388 91T407 165V336ZM240 735Q275 735 298 712T322 655Q322 621 299 598T240 575Q205
575 182 598T158 655Q158 689 181 712T240 735ZM240 721Q212 721 193 702T174 655Q174 627 193 608T240 589Q268 589 287 608T306 655Q306 683 287 702T240 721Z" />
<glyph unicode="&#xe6;" horiz-adv-x="873" d="M209 -10Q159 -10 123 4T68 46T49 112Q49 168 86 200T193 245L407 284V336Q407 410 366 453T248 496Q185 496 139 469T69 378L56 388Q72 430 99 457T164 497T248 510Q328 510 375 466T422 332L419 335Q429 389 459
428T532 488T624 510Q687 510 732 481T800 400T824 278Q824 277 824 275T824 271H422V250Q422 135 476 70T632 4Q688 4 737 34T812 116L825 109Q808 72 778 46T711 5T632 -10Q547 -10 490 37T418 167L420 168Q418 118 398 84T347 29T279 -1T209 -10ZM211 4Q244
4 278 13T342 43T389 96T407 175V270L204 233Q134 220 100 191T65 114Q65 61 102 33T211 4ZM424 286H810Q809 345 787 392T725 468T624 496Q543 496 488 441T424 286Z" />
<glyph unicode="&#xe7;" horiz-adv-x="524" d="M281 510Q331 510 371 494T438 448T478 373L464 366Q448 428 400 462T281 496Q220 496 172 467T95 382T67 250Q67 174 94 119T169 34T278 4Q325 4 365 21T433 69T468 142L482 137Q474 92 445 59T372 8T278 -10Q212
-10 161 21T81 110T51 250Q51 331 81 389T163 479T281 510ZM241 3H262Q313 -22 333 -50T354 -114Q354 -154 330 -178T266 -202Q236 -202 214 -192T172 -160L180 -148Q200 -170 220 -179T266 -189Q298 -189 318 -169T339 -115Q339 -83 319 -56T241 3Z" />
<glyph unicode="&#xe8;" horiz-adv-x="534" d="M283 -10Q217 -10 165 21T82 110T51 250Q51 332 81 390T161 479T275 510Q341 510 388 480T460 395T486 262Q486 261 486 259T486 255H59V270H479L472 264Q471 367 421 431T275 496Q217 496 170 467T95 382T67 250Q67
173 95 118T172 34T283 4Q344 4 394 34T469 116L482 109Q465 72 435 46T366 5T283 -10ZM197 730L282 583H267L179 730H197Z" />
<glyph unicode="&#xe9;" horiz-adv-x="534" d="M283 -10Q217 -10 165 21T82 110T51 250Q51 332 81 390T161 479T275 510Q341 510 388 480T460 395T486 262Q486 261 486 259T486 255H59V270H479L472 264Q471 367 421 431T275 496Q217 496 170 467T95 382T67 250Q67
173 95 118T172 34T283 4Q344 4 394 34T469 116L482 109Q465 72 435 46T366 5T283 -10ZM349 730H367L279 583H264L349 730Z" />
<glyph unicode="&#xea;" horiz-adv-x="534" d="M283 -10Q217 -10 165 21T82 110T51 250Q51 332 81 390T161 479T275 510Q341 510 388 480T460 395T486 262Q486 261 486 259T486 255H59V270H479L472 264Q471 367 421 431T275 496Q217 496 170 467T95 382T67 250Q67
173 95 118T172 34T283 4Q344 4 394 34T469 116L482 109Q465 72 435 46T366 5T283 -10ZM388 583H371L271 712L171 583H154L262 725H280L388 583Z" />
<glyph unicode="&#xeb;" horiz-adv-x="534" d="M283 -10Q217 -10 165 21T82 110T51 250Q51 332 81 390T161 479T275 510Q341 510 388 480T460 395T486 262Q486 261 486 259T486 255H59V270H479L472 264Q471 367 421 431T275 496Q217 496 170 467T95 382T67 250Q67
173 95 118T172 34T283 4Q344 4 394 34T469 116L482 109Q465 72 435 46T366 5T283 -10ZM178 642Q188 642 194 636T200 620Q200 610 194 604T178 598Q168 598 162 604T156 620Q156 630 162 636T178 642ZM362 642Q372 642 378 636T384 620Q384 610 378 604T362 598Q352
598 346 604T340 620Q340 630 346 636T362 642Z" />
<glyph unicode="&#xec;" horiz-adv-x="186" d="M101 500V0H85V500H101ZM19 730L104 583H89L1 730H19Z" />
<glyph unicode="&#xed;" horiz-adv-x="186" d="M101 500V0H85V500H101ZM171 730H189L101 583H86L171 730Z" />
<glyph unicode="&#xee;" horiz-adv-x="186" d="M101 500V0H85V500H101ZM210 583H193L93 712L-7 583H-24L84 725H102L210 583Z" />
<glyph unicode="&#xef;" horiz-adv-x="186" d="M143 598Q133 598 127 604T121 620Q121 630 127 636T143 642Q153 642 159 636T165 620Q165 610 159 604T143 598ZM43 598Q33 598 27 604T21 620Q21 630 27 636T43 642Q53 642 59 636T65 620Q65 610 59 604T43 598ZM101
500V0H85V500H101Z" />
<glyph unicode="&#xf0;" horiz-adv-x="577" d="M287 -10Q214 -10 161 20T80 107T51 237Q51 313 79 368T159 454T279 485Q374 485 432 436T502 304L497 294Q497 385 477 457T421 582T339 673T239 730H270Q318 708 361 673T438 585T491 458T511 283Q511 184 484
119T406 22T287 -10ZM287 4Q358 4 404 38T472 130T495 259Q495 325 466 372T389 445T279 471Q215 471 168 442T94 361T67 237Q67 131 125 68T287 4ZM228 574L224 587L406 625L414 613L228 574ZM414 613L406 625L526 651L530 638L414 613Z" />
<glyph unicode="&#xf1;" horiz-adv-x="574" d="M85 0V500H101V360L100 363Q111 405 140 438T212 491T309 510Q367 510 408 489T472 427T495 329V0H479V327Q479 407 433 451T306 496Q248 496 202 469T128 398T101 301V0H85ZM452 683Q447 655 436 636T408 608T369
599Q343 599 325 609T291 633T259 657T222 668Q193 668 176 650T151 598H136Q144 641 167 661T223 682Q247 682 265 672T298 648T330 624T369 613Q399 613 414 631T437 683H452Z" />
<glyph unicode="&#xf2;" horiz-adv-x="569" d="M285 510Q354 510 406 479T488 390T518 250Q518 169 489 111T407 21T285 -10Q216 -10 164 21T81 110T51 250Q51 331 81 389T163 479T285 510ZM285 496Q221 496 172 467T95 382T67 250Q67 174 95 119T172 34T285 4Q349
4 398 33T474 118T502 250Q502 327 475 382T398 466T285 496ZM211 726L296 579H281L193 726H211Z" />
<glyph unicode="&#xf3;" horiz-adv-x="569" d="M285 510Q354 510 406 479T488 390T518 250Q518 169 489 111T407 21T285 -10Q216 -10 164 21T81 110T51 250Q51 331 81 389T163 479T285 510ZM285 496Q221 496 172 467T95 382T67 250Q67 174 95 119T172 34T285 4Q349
4 398 33T474 118T502 250Q502 327 475 382T398 466T285 496ZM363 726H381L293 579H278L363 726Z" />
<glyph unicode="&#xf4;" horiz-adv-x="569" d="M285 510Q354 510 406 479T488 390T518 250Q518 169 489 111T407 21T285 -10Q216 -10 164 21T81 110T51 250Q51 331 81 389T163 479T285 510ZM285 496Q221 496 172 467T95 382T67 250Q67 174 95 119T172 34T285 4Q349
4 398 33T474 118T502 250Q502 327 475 382T398 466T285 496ZM402 579H385L285 708L185 579H168L276 721H294L402 579Z" />
<glyph unicode="&#xf5;" horiz-adv-x="569" d="M285 510Q354 510 406 479T488 390T518 250Q518 169 489 111T407 21T285 -10Q216 -10 164 21T81 110T51 250Q51 331 81 389T163 479T285 510ZM285 496Q221 496 172 467T95 382T67 250Q67 174 95 119T172 34T285 4Q349
4 398 33T474 118T502 250Q502 327 475 382T398 466T285 496ZM444 679Q439 651 428 632T400 604T361 595Q335 595 317 605T283 629T251 653T214 664Q185 664 168 646T143 594H128Q136 637 159 657T215 678Q239 678 257 668T290 644T322 620T361 609Q391 609 406
627T429 679H444Z" />
<glyph unicode="&#xf6;" horiz-adv-x="569" d="M285 510Q354 510 406 479T488 390T518 250Q518 169 489 111T407 21T285 -10Q216 -10 164 21T81 110T51 250Q51 331 81 389T163 479T285 510ZM285 496Q221 496 172 467T95 382T67 250Q67 174 95 119T172 34T285 4Q349
4 398 33T474 118T502 250Q502 327 475 382T398 466T285 496ZM192 638Q202 638 208 632T214 616Q214 606 208 600T192 594Q182 594 176 600T170 616Q170 626 176 632T192 638ZM376 638Q386 638 392 632T398 616Q398 606 392 600T376 594Q366 594 360 600T354 616Q354
626 360 632T376 638Z" />
<glyph unicode="&#xf7;" horiz-adv-x="604" d="M527 323V309H77V323H527ZM302 154Q312 154 318 148T324 132Q324 122 318 116T302 110Q292 110 286 116T280 132Q280 142 286 148T302 154ZM302 524Q312 524 318 518T324 502Q324 492 318 486T302 480Q292 480 286
486T280 502Q280 512 286 518T302 524Z" />
<glyph unicode="&#xf8;" horiz-adv-x="569" d="M285 510Q354 510 406 479T488 390T518 250Q518 169 489 111T407 21T285 -10Q216 -10 164 21T81 110T51 250Q51 331 81 389T163 479T285 510ZM285 496Q221 496 172 467T95 382T67 250Q67 174 95 119T172 34T285 4Q349
4 398 33T474 118T502 250Q502 327 475 382T398 466T285 496ZM52 -30L498 530H517L71 -30H52Z" />
<glyph unicode="&#xf9;" horiz-adv-x="564" d="M254 -10Q199 -10 160 10T100 71T79 167V500H95V169Q95 90 137 47T257 4Q311 4 350 23T414 72T451 135T463 196V500H479V0H463V133Q446 72 390 31T254 -10ZM206 710L291 563H276L188 710H206Z" />
<glyph unicode="&#xfa;" horiz-adv-x="564" d="M254 -10Q199 -10 160 10T100 71T79 167V500H95V169Q95 90 137 47T257 4Q311 4 350 23T414 72T451 135T463 196V500H479V0H463V133Q446 72 390 31T254 -10ZM358 710H376L288 563H273L358 710Z" />
<glyph unicode="&#xfb;" horiz-adv-x="564" d="M254 -10Q199 -10 160 10T100 71T79 167V500H95V169Q95 90 137 47T257 4Q311 4 350 23T414 72T451 135T463 196V500H479V0H463V133Q446 72 390 31T254 -10ZM397 563H380L280 692L180 563H163L271 705H289L397 563Z" />
<glyph unicode="&#xfc;" horiz-adv-x="564" d="M254 -10Q199 -10 160 10T100 71T79 167V500H95V169Q95 90 137 47T257 4Q311 4 350 23T414 72T451 135T463 196V500H479V0H463V133Q446 72 390 31T254 -10ZM187 622Q197 622 203 616T209 600Q209 590 203 584T187
578Q177 578 171 584T165 600Q165 610 171 616T187 622ZM371 622Q381 622 387 616T393 600Q393 590 387 584T371 578Q361 578 355 584T349 600Q349 610 355 616T371 622Z" />
<glyph unicode="&#xfd;" horiz-adv-x="481" d="M459 500L210 -101Q192 -144 173 -169T129 -204T74 -215Q48 -215 28 -207T-4 -183L5 -170Q16 -187 35 -194T75 -201Q114 -201 142 -180T195 -98L235 -1L180 128L22 500H40L225 60L243 18L260 61L441 500H459ZM322
710H340L252 563H237L322 710Z" />
<glyph unicode="&#xfe;" horiz-adv-x="585" d="M85 -210V730H101V341L100 343Q117 423 174 466T308 510Q377 510 427 479T506 390T534 250Q534 169 506 111T428 21T308 -10Q232 -10 176 33T100 155L101 157V-210H85ZM305 4Q402 4 460 69T518 250Q518 366 460 431T305
496Q247 496 201 466T128 381T101 250Q101 175 127 120T200 34T305 4Z" />
<glyph unicode="&#xff;" horiz-adv-x="481" d="M459 500L210 -101Q192 -144 173 -169T129 -204T74 -215Q48 -215 28 -207T-4 -183L5 -170Q16 -187 35 -194T75 -201Q114 -201 142 -180T195 -98L235 -1L180 128L22 500H40L225 60L243 18L260 61L441 500H459ZM151
622Q161 622 167 616T173 600Q173 590 167 584T151 578Q141 578 135 584T129 600Q129 610 135 616T151 622ZM335 622Q345 622 351 616T357 600Q357 590 351 584T335 578Q325 578 319 584T313 600Q313 610 319 616T335 622Z" />
<glyph unicode="&#x2013;" horiz-adv-x="609" d="M541 278V262H68V278H541Z" />
<glyph unicode="&#x2014;" horiz-adv-x="939" d="M871 278V262H68V278H871Z" />
<glyph unicode="&#x2018;" horiz-adv-x="173" d="M87 544Q76 544 69 550T58 566T54 589Q54 608 60 627T80 663T113 690L125 681Q104 672 90 654T69 614T70 576H72Q74 582 78 585T89 588Q95 588 100 585T107 577T110 566Q110 560 107 555T99 547T87 544Z" />
<glyph unicode="&#x2019;" horiz-adv-x="172" d="M91 688Q102 688 109 682T120 666T124 643Q124 624 118 605T98 569T65 542L53 551Q74 560 88 578T109 618T108 656H106Q104 650 100 647T89 644Q83 644 78 647T71 655T68 666Q68 672 71 677T79 685T91 688Z" />
<glyph unicode="&#x201a;" horiz-adv-x="172" d="M91 39Q102 39 109 33T120 17T124 -6Q124 -25 118 -44T98 -80T65 -107L53 -98Q74 -89 88 -71T109 -31T108 7H106Q104 1 100 -2T89 -5Q83 -5 78 -2T71 6T68 17Q68 23 71 28T79 36T91 39Z" />
<glyph unicode="&#x201c;" horiz-adv-x="271" d="M87 544Q76 544 69 550T58 566T54 589Q54 608 60 627T80 663T113 690L125 681Q104 672 90 654T69 614T70 576H72Q74 582 78 585T89 588Q95 588 100 585T107 577T110 566Q110 560 107 555T99 547T87 544ZM185 544Q174
544 167 550T156 566T152 589Q152 608 158 627T178 663T211 690L223 681Q202 672 188 654T167 614T168 576H170Q172 582 176 585T187 588Q193 588 198 585T205 577T208 566Q208 560 205 555T197 547T185 544Z" />
<glyph unicode="&#x201d;" horiz-adv-x="270" d="M91 688Q102 688 109 682T120 666T124 643Q124 624 118 605T98 569T65 542L53 551Q74 560 88 578T109 618T108 656H106Q104 650 100 647T89 644Q83 644 78 647T71 655T68 666Q68 672 71 677T79 685T91 688ZM189
688Q200 688 207 682T218 666T222 643Q222 624 216 605T196 569T163 542L151 551Q172 560 186 578T207 618T206 656H204Q202 650 198 647T187 644Q181 644 176 647T169 655T166 666Q166 672 169 677T177 685T189 688Z" />
<glyph unicode="&#x201e;" horiz-adv-x="270" d="M91 39Q102 39 109 33T120 17T124 -6Q124 -25 118 -44T98 -80T65 -107L53 -98Q74 -89 88 -71T109 -31T108 7H106Q104 1 100 -2T89 -5Q83 -5 78 -2T71 6T68 17Q68 23 71 28T79 36T91 39ZM189 39Q200 39 207 33T218
17T222 -6Q222 -25 216 -44T196 -80T163 -107L151 -98Q172 -89 186 -71T207 -31T206 7H204Q202 1 198 -2T187 -5Q181 -5 176 -2T169 6T166 17Q166 23 169 28T177 36T189 39Z" />
<glyph unicode="&#x2022;" horiz-adv-x="430" d="M215 279Q189 279 172 296T155 339Q155 365 172 382T215 399Q241 399 258 382T275 339Q275 313 258 296T215 279Z" />
<glyph unicode="&#x2039;" horiz-adv-x="261" d="M211 461L66 265L211 69H190L46 265L190 461H211Z" />
<glyph unicode="&#x203a;" horiz-adv-x="261" d="M50 69L195 265L50 461H71L215 265L71 69H50Z" />
</font>
</defs>
</svg>
