<?xml version="1.0" standalone="no"?>
<!DOCTYPE svg PUBLIC "-//W3C//DTD SVG 1.1//EN" "http://www.w3.org/Graphics/SVG/1.1/DTD/svg11.dtd">
<svg xmlns="http://www.w3.org/2000/svg">
<defs >
<font id="WorkSans" horiz-adv-x="597" ><font-face
    font-family="Work Sans Medium"
    units-per-em="1000"
    panose-1="0 0 0 0 0 0 0 0 0 0"
    ascent="930"
    descent="-243"
    alphabetic="0" />
<glyph unicode=" " horiz-adv-x="325" />
<glyph unicode="!" horiz-adv-x="281" d="M196 660V396L182 210H98L84 396V660H196ZM140 132Q174 132 194 113T215 61Q215 29 195 10T140 -9Q107 -9 87 10T66 61Q66 93 86 112T140 132Z" />
<glyph unicode="&quot;" horiz-adv-x="416" d="M359 686L332 430H254V686H359ZM181 686L154 430H76V686H181Z" />
<glyph unicode="#" horiz-adv-x="654" d="M539 660L430 0H348L457 660H539ZM588 250V177H22V250H588ZM302 660L193 0H110L219 660H302ZM632 484V410H65V484H632Z" />
<glyph unicode="$" horiz-adv-x="628" d="M320 1Q252 1 198 18T103 66T36 135L107 207Q128 172 160 146T234 104T326 89Q394 89 433 112T473 183Q473 210 453 231T381 265L235 299Q177 312 140 335T84 391T66 465Q66 520 95 564T181 634T316 661Q401 661 465 629T571
533L503 467Q466 524 419 549T307 574Q259 574 229 562T183 528T168 480Q168 459 176 442T208 412T273 390L403 361Q496 340 535 299T574 194Q574 135 542 92T453 25T320 1ZM278 -96V756H358V-96H278Z" />
<glyph unicode="%" horiz-adv-x="880" d="M178 0L610 660H702L271 0H178ZM204 670Q255 670 292 647T350 583T371 486Q371 431 351 390T293 325T204 302Q154 302 116 325T58 389T37 486Q37 542 57 583T116 647T204 670ZM204 592Q179 592 161 580T134 544T125 486Q125
453 134 429T161 393T204 381Q230 381 248 393T275 429T284 486Q284 520 275 543T248 579T204 592ZM676 358Q727 358 764 335T822 271T843 174Q843 118 823 77T765 13T676 -10Q626 -10 588 13T530 77T509 174Q509 229 529 270T588 335T676 358ZM676 279Q651 279
633 267T606 232T597 174Q597 141 606 117T633 81T676 68Q702 68 720 80T747 117T756 174Q756 207 747 231T720 267T676 279Z" />
<glyph unicode="&amp;" horiz-adv-x="630" d="M258 -10Q191 -10 143 12T68 75T41 169Q41 200 49 228T77 283T131 332T216 372L255 389Q295 412 319 431T355 471T367 520Q367 553 347 571T294 589Q255 589 236 568T216 516Q216 498 221 481T243 439T292 374T379
267Q433 202 469 162T532 101T580 74T631 68L613 -10Q581 -10 554 -4T495 25T421 91T316 208Q258 276 220 322T160 401T129 460T120 517Q120 554 139 589T196 647T297 670Q347 670 382 652T436 603T455 530Q455 492 441 459T392 396T291 337L258 323Q212 300 186
279T149 235T138 178Q138 144 155 120T203 82T270 69Q323 69 360 87T429 139L443 154Q467 192 480 240T489 349L572 344Q574 280 556 220T499 112L479 90Q443 44 388 17T258 -10Z" />
<glyph unicode="&apos;" horiz-adv-x="239" d="M181 686L154 430H76V686H181Z" />
<glyph unicode="(" horiz-adv-x="362" d="M283 747L339 691Q276 634 238 570T183 435T166 278Q166 195 183 123T238 -13T339 -134L283 -190Q174 -102 119 15T63 278Q63 424 118 542T283 747Z" />
<glyph unicode=")" horiz-adv-x="362" d="M79 -190L23 -134Q86 -77 124 -13T179 122T196 279Q196 362 179 434T124 570T23 691L79 747Q188 659 243 542T299 279Q299 133 244 15T79 -190Z" />
<glyph unicode="*" horiz-adv-x="577" d="M307 505L388 423L462 321L396 273L322 375L269 477L288 491L307 505ZM269 505L288 491L307 477L254 375L181 273L115 321L189 423L269 505ZM73 603L193 564L296 513L288 491L281 468L168 488L49 526L73 603ZM330 730L329
604L312 491H288H264L248 604L247 730H330ZM504 603L528 526L409 488L296 468L288 491L281 513L384 564L504 603Z" />
<glyph unicode="+" horiz-adv-x="604" d="M349 572V66H256V572H349ZM548 364V275H56V364H548Z" />
<glyph unicode="," horiz-adv-x="273" d="M136 135Q164 135 182 122T211 85T221 31Q221 -6 207 -40T167 -103T103 -150L53 -107Q80 -97 101 -81T136 -45T157 -4L153 -2Q148 -5 142 -7T123 -9Q109 -9 95 -2T70 21T60 60Q60 82 70 99T98 125T136 135Z" />
<glyph unicode="-" horiz-adv-x="515" d="M428 313V214H87V313H428Z" />
<glyph unicode="." horiz-adv-x="273" d="M137 135Q171 135 191 116T212 63Q212 30 192 10T137 -10Q102 -10 82 10T61 63Q61 96 81 115T137 135Z" />
<glyph unicode="/" horiz-adv-x="446" d="M422 725L124 -70H24L322 725H422Z" />
<glyph unicode="0" horiz-adv-x="628" d="M314 -10Q195 -10 128 76T60 330Q60 497 127 583T314 670Q434 670 501 584T569 330Q569 163 502 77T314 -10ZM314 81Q362 81 394 108T443 191T460 330Q460 413 444 468T395 551T314 579Q266 579 234 552T185 469T169 330Q169
247 185 192T233 109T314 81Z" />
<glyph unicode="1" horiz-adv-x="402" d="M203 0V453Q203 473 203 494T205 540Q171 507 128 484T38 450L18 543Q39 546 67 557T125 585T180 621T219 660H309V0H203Z" />
<glyph unicode="2" horiz-adv-x="587" d="M70 0V78Q165 146 229 198T333 294T389 377T407 458Q407 511 374 544T282 577Q220 577 184 536T142 422L49 465Q56 528 86 574T167 645T287 670Q343 670 385 654T457 610T501 543T517 462Q517 399 486 341T388 221T212
90V88Q224 90 245 90T287 91T321 92H529V0H70Z" />
<glyph unicode="3" horiz-adv-x="586" d="M293 -10Q200 -10 132 31T38 148L142 197Q151 161 170 135T220 96T297 82Q336 82 363 96T404 135T419 192Q419 225 407 247T368 279T300 289Q288 289 276 289T249 286V376Q258 375 266 375T283 374Q348 374 376 400T404
481Q404 528 376 553T294 578Q239 578 209 553T162 479L64 520Q78 566 111 600T192 652T299 671Q370 671 417 648T488 585T512 496Q512 458 501 430T472 381T432 349T388 334V332Q417 331 441 321T485 292T516 247T527 190Q527 130 497 85T415 15T293 -10Z" />
<glyph unicode="4" horiz-adv-x="622" d="M366 0V165H44V238Q46 243 50 250T61 266L336 660H467V248H579V165H467V0H366ZM144 248H366V481Q366 505 367 530T370 581H368Q357 557 340 529T307 479L151 257Q149 255 148 253T144 248Z" />
<glyph unicode="5" horiz-adv-x="582" d="M287 -10Q199 -10 143 28T53 138L153 190Q168 142 198 112T289 81Q331 81 360 96T406 140T422 209Q422 251 407 279T364 321T294 336Q265 336 240 330T195 312T160 279L72 296L112 660H496V568H197L173 382L171 371H173Q196
396 232 410T319 424Q383 424 429 398T501 324T527 215Q527 161 509 119T458 48T382 5T287 -10Z" />
<glyph unicode="6" horiz-adv-x="611" d="M329 670Q382 670 423 656T494 610T545 529L451 484Q437 527 407 552T322 577Q283 577 253 558T202 505T170 424T159 323Q159 320 159 317T159 305L163 303Q174 343 202 367T267 404T338 416Q404 416 453 391T529 318T557
206Q557 140 528 92T448 17T324 -10Q240 -10 181 32T91 150T60 328Q60 441 95 517T192 631T329 670ZM322 327Q284 327 255 312T210 269T193 206Q193 171 210 143T257 99T322 82Q383 82 417 115T451 206Q451 243 436 270T393 312T322 327Z" />
<glyph unicode="7" horiz-adv-x="575" d="M38 660H541V571Q458 485 407 395T334 207T311 0H203Q203 110 230 214T314 414T457 594L477 567H38V660Z" />
<glyph unicode="8" horiz-adv-x="619" d="M310 669Q377 669 426 648T503 587T530 493Q530 442 506 404T434 345V344Q491 323 524 282T558 179Q558 120 528 78T442 13T310 -10Q234 -10 179 13T92 78T61 179Q61 239 94 281T186 344V345Q141 364 115 402T89 493Q89
548 116 587T193 647T310 669ZM310 579Q257 579 226 553T194 482Q194 437 226 412T310 386Q362 386 393 411T425 482Q425 527 394 553T310 579ZM310 80Q354 80 385 93T433 131T450 189Q450 224 433 248T384 286T310 299Q268 299 236 286T187 249T169 189Q169 156
186 131T235 93T310 80Z" />
<glyph unicode="9" horiz-adv-x="617" d="M296 670Q381 670 439 628T527 510T557 331Q557 217 526 142T437 28T297 -10Q213 -10 153 27T63 138L164 185Q178 138 210 110T299 82Q345 82 376 100T425 152T452 234T460 342Q460 345 460 347T460 353H456Q445 313 417
288T352 252T280 240Q216 240 167 265T89 337T61 446Q61 515 89 565T170 642T296 670ZM297 576Q234 576 201 542T167 447Q167 393 202 363T297 332Q335 332 364 347T409 390T426 453Q426 491 410 518T364 561T297 576Z" />
<glyph unicode=":" horiz-adv-x="298" d="M149 510Q183 510 203 491T224 438Q224 405 204 385T149 365Q114 365 94 385T73 438Q73 471 93 490T149 510ZM149 135Q183 135 203 116T224 63Q224 30 204 10T149 -10Q114 -10 94 10T73 63Q73 96 93 115T149 135Z" />
<glyph unicode=";" horiz-adv-x="298" d="M147 135Q175 135 193 122T222 85T232 31Q232 -6 218 -40T178 -103T114 -150L64 -107Q91 -97 112 -81T147 -45T168 -4L164 -2Q159 -5 153 -7T134 -9Q120 -9 106 -2T81 21T71 60Q71 82 81 99T109 125T147 135ZM149 509Q183
509 203 490T224 437Q224 404 204 384T149 364Q114 364 94 384T73 437Q73 470 93 489T149 509Z" />
<glyph unicode="&lt;" horiz-adv-x="604" d="M549 21L68 244V353L549 576V470L153 300L549 128V21Z" />
<glyph unicode="=" horiz-adv-x="604" d="M540 454V366H64V454H540ZM540 249V161H64V249H540Z" />
<glyph unicode="&gt;" horiz-adv-x="604" d="M55 576L536 353V244L55 21V127L451 297L55 469V576Z" />
<glyph unicode="?" horiz-adv-x="562" d="M283 670Q350 670 402 650T484 590T514 496Q514 437 489 398T420 338T325 311L322 210H219V361Q285 369 324 384T382 423T400 482Q400 525 370 550T276 576Q217 576 180 543T136 451L37 496Q48 548 80 587T163 648T283
670ZM270 132Q304 132 324 113T345 61Q345 29 325 10T270 -9Q237 -9 217 10T196 61Q196 93 216 112T270 132Z" />
<glyph unicode="@" horiz-adv-x="950" d="M479 -192Q385 -192 308 -163T176 -80T90 52T59 225Q59 322 91 402T183 540T323 630T500 662Q592 662 665 632T789 549T867 426T894 276Q894 207 877 154T829 65T762 11T686 -8Q628 -8 599 22T574 99Q552 54 509 28T417
2Q368 2 330 26T271 94T249 197Q249 251 265 299T312 385T383 443T474 464Q510 464 539 452T589 415T618 356L641 455H735L662 141Q660 130 659 121T657 103Q657 76 671 67T704 57Q737 57 765 80T812 152T830 274Q830 345 807 404T741 507T638 574T502 598Q420
598 353 572T236 497T159 379T131 225Q131 141 158 76T233 -35T344 -105T481 -129Q561 -129 609 -109T691 -64L726 -117Q699 -137 666 -154T587 -181T479 -192ZM454 77Q492 77 523 103T572 174T591 271Q591 306 578 332T542 372T488 387Q455 387 429 372T383 331T354
270T343 198Q343 160 356 133T393 91T454 77Z" />
<glyph unicode="A" horiz-adv-x="665" d="M20 0L269 660H397L646 0H533L363 472L333 567H330L302 474L130 0H20ZM153 173V260H510V173H153Z" />
<glyph unicode="B" horiz-adv-x="662" d="M98 0V660H358Q477 660 532 612T587 479Q587 427 557 387T469 335V334Q533 324 568 282T604 183Q604 98 542 49T362 0H98ZM203 89H367Q430 89 461 115T493 188Q493 235 462 261T367 287H203V89ZM203 376H350Q476 376 476
473Q476 570 350 570H203V376Z" />
<glyph unicode="C" horiz-adv-x="684" d="M645 175Q625 115 585 74T491 11T372 -10Q277 -10 207 31T99 148T61 330Q61 436 99 512T207 629T371 670Q436 670 488 652T578 598T635 508L534 463Q514 522 476 549T377 577Q316 577 270 548T199 464T173 330Q173 252
197 197T266 112T374 83Q435 83 479 114T543 209L645 175Z" />
<glyph unicode="D" horiz-adv-x="720" d="M331 660Q486 660 572 575T659 330Q659 171 573 86T331 0H98V660H331ZM331 91Q436 91 491 153T547 330Q547 444 492 506T331 569H205V91H331Z" />
<glyph unicode="E" horiz-adv-x="636" d="M98 0V660H576V568H205V378H495V288H205V92H590V0H98Z" />
<glyph unicode="F" horiz-adv-x="611" d="M575 568H205V376H495V284H205V0H98V660H575V568Z" />
<glyph unicode="G" horiz-adv-x="724" d="M366 -10Q273 -10 205 31T99 147T61 330Q61 435 100 511T212 628T379 670Q482 670 545 632T647 514L548 467Q529 522 486 549T380 577Q318 577 272 548T199 464T173 330Q173 251 196 196T265 111T380 82Q417 82 449 91T505
119T542 166T556 234V253H364V340H651V0H571L565 133L585 123Q561 60 506 25T366 -10Z" />
<glyph unicode="H" horiz-adv-x="736" d="M639 660V0H531V660H639ZM205 660V0H98V660H205ZM585 380V288H152V380H585Z" />
<glyph unicode="I" horiz-adv-x="303" d="M205 660V0H98V660H205Z" />
<glyph unicode="J" horiz-adv-x="582" d="M493 660V234Q493 119 430 55T253 -10Q172 -10 121 20T50 104T43 231L146 250Q134 164 159 124T253 83Q328 83 356 126T385 254V660H493Z" />
<glyph unicode="K" horiz-adv-x="667" d="M639 660L345 342L333 341L162 157L152 274L508 660H639ZM205 660V0H98V660H205ZM367 424L645 0H519L282 364L367 424Z" />
<glyph unicode="L" horiz-adv-x="599" d="M205 92H569V0H98V660H205V92Z" />
<glyph unicode="M" horiz-adv-x="871" d="M773 660V0H674V382L682 564H681L480 0H391L190 564H189L197 382V0H98V660H257L390 278L436 121H438L485 278L617 660H773Z" />
<glyph unicode="N" horiz-adv-x="736" d="M639 660V0H512L257 416L193 533H192L196 426V0H98V660H224L478 245L543 126H544L540 234V660H639Z" />
<glyph unicode="O" horiz-adv-x="745" d="M372 670Q468 670 538 629T646 512T684 330Q684 224 646 148T538 31T372 -10Q277 -10 207 31T99 148T61 330Q61 436 99 512T207 629T372 670ZM372 577Q310 577 266 548T197 464T173 330Q173 252 197 197T265 112T372 83Q435
83 479 112T548 196T572 330Q572 409 548 464T480 548T372 577Z" />
<glyph unicode="P" horiz-adv-x="627" d="M352 660Q423 660 474 635T555 564T584 453Q584 389 555 343T475 271T352 246H205V0H98V660H352ZM335 338Q406 338 439 367T473 453Q473 510 440 539T335 569H205V338H335Z" />
<glyph unicode="Q" horiz-adv-x="745" d="M535 -198Q479 -198 433 -178T358 -113T329 7Q329 19 331 33T338 60L417 66Q414 52 412 41T410 19Q410 -33 427 -59T473 -94T536 -103Q575 -103 605 -93T655 -67L681 -154Q657 -175 615 -186T535 -198ZM372 670Q468 670
538 629T646 512T684 330Q684 224 646 148T538 31T372 -10Q277 -10 207 31T99 148T61 330Q61 436 99 512T207 629T372 670ZM372 577Q310 577 266 548T197 464T173 330Q173 252 197 197T265 112T372 83Q435 83 479 112T548 196T572 330Q572 409 548 464T480 548T372
577Z" />
<glyph unicode="R" horiz-adv-x="672" d="M367 660Q473 660 535 607T598 464Q598 371 536 321T367 270L357 264H204V0H98V660H367ZM359 353Q424 353 455 379T487 461Q487 515 456 542T359 569H204V353H359ZM422 331L637 0H514L330 289L422 331Z" />
<glyph unicode="S" horiz-adv-x="642" d="M323 670Q412 670 477 637T587 538L515 469Q477 527 430 552T317 578Q269 578 238 565T193 531T178 482Q178 451 199 428T280 392L414 362Q510 341 550 298T590 189Q590 128 557 83T466 14T328 -10Q258 -10 202 8T104
57T35 128L109 202Q130 167 162 140T236 97T331 82Q377 82 410 93T461 125T479 177Q479 206 460 228T387 262L242 295Q182 308 143 332T85 390T66 468Q66 524 96 569T185 642T323 670Z" />
<glyph unicode="T" horiz-adv-x="619" d="M589 660V568H363V0H256V568H30V660H589Z" />
<glyph unicode="U" horiz-adv-x="709" d="M624 660V253Q624 122 555 56T354 -10Q224 -10 155 56T85 253V660H192V266Q192 173 232 128T354 83Q437 83 477 128T517 266V660H624Z" />
<glyph unicode="V" horiz-adv-x="659" d="M637 660L392 0H267L22 660H136L290 221L330 90L370 220L524 660H637Z" />
<glyph unicode="W" horiz-adv-x="972" d="M222 0L28 660H141L289 93L433 660H543L688 92L835 660H944L751 0H625L520 396L487 548H486L453 396L349 0H222Z" />
<glyph unicode="X" horiz-adv-x="620" d="M595 0H469L306 254L144 0H21L250 335L39 660H165L316 420L469 660H586L372 339L595 0Z" />
<glyph unicode="Y" d="M588 660L352 253V0H245V253L10 660H129L247 447L299 349L351 447L468 660H588Z" />
<glyph unicode="Z" horiz-adv-x="631" d="M141 54L122 91H583V0H50V87L480 606L499 569H59V660H571V573L141 54Z" />
<glyph unicode="[" horiz-adv-x="361" d="M330 640H183V-83H330V-168H86V725H330V640Z" />
<glyph unicode="\" horiz-adv-x="446" d="M24 725H124L422 -70H322L24 725Z" />
<glyph unicode="]" horiz-adv-x="361" d="M31 -83H178V640H31V725H275V-168H31V-83Z" />
<glyph unicode="^" horiz-adv-x="576" d="M26 355L240 728H336L549 355H448L288 647L128 355H26Z" />
<glyph unicode="_" horiz-adv-x="539" d="M539 -88V-181H0V-88H539Z" />
<glyph unicode="`" horiz-adv-x="500" d="M268 746L341 578H259L160 746H268Z" />
<glyph unicode="a" horiz-adv-x="570" d="M372 321Q372 371 345 398T269 426Q224 426 192 405T145 337L55 375Q74 436 129 473T273 510Q333 510 379 491T451 432T478 332V109Q478 72 515 72Q533 72 550 77L544 3Q521 -8 486 -8Q454 -8 429 3T389 38T374 97V104L396
105Q387 66 359 41T294 3T219 -10Q172 -10 135 5T76 50T54 126Q54 182 90 218T194 267L388 305L387 230L246 201Q204 193 183 178T162 134Q162 106 183 90T241 73Q266 73 289 79T332 98T361 133T372 185V321Z" />
<glyph unicode="b" horiz-adv-x="627" d="M351 -10Q307 -10 271 7T209 54T172 123L185 140L177 0H83V725H190V374L178 391Q197 443 243 476T354 510Q414 510 464 479T544 390T573 249Q573 168 544 110T464 21T351 -10ZM328 76Q393 76 429 122T466 250Q466 331
430 377T329 423Q287 423 256 402T208 341T190 248Q190 195 207 157T255 97T328 76Z" />
<glyph unicode="c" horiz-adv-x="562" d="M299 510Q359 510 401 493T473 443T517 370L416 330Q403 376 375 400T300 425Q255 425 223 405T175 345T158 249Q158 193 175 154T224 95T300 75Q334 75 359 86T400 119T423 172L520 139Q506 94 477 61T403 9T302 -10Q228
-10 171 21T83 110T51 250Q51 331 82 389T170 479T299 510Z" />
<glyph unicode="d" horiz-adv-x="627" d="M275 -10Q213 -10 163 21T83 110T54 249Q54 333 85 391T168 479T282 510Q346 510 390 475T449 384L437 373V725H544V0H449L441 136L455 135Q448 90 422 58T358 8T275 -10ZM298 76Q341 76 372 98T420 160T437 256Q437 308
420 345T373 403T302 423Q235 423 198 377T161 250Q161 169 197 123T298 76Z" />
<glyph unicode="e" horiz-adv-x="578" d="M303 -10Q228 -10 171 21T83 110T51 250Q51 331 82 389T170 479T297 510Q370 510 421 480T499 398T526 280Q526 262 525 246T522 218H120V300H475L422 284Q422 352 388 388T295 425Q252 425 220 405T171 346T154 249Q154
193 172 154T223 95T301 75Q351 75 382 94T431 147L516 107Q498 71 468 45T395 4T303 -10Z" />
<glyph unicode="f" horiz-adv-x="400" d="M295 732Q326 732 351 726T390 708L370 631Q359 638 345 641T313 645Q272 645 249 626T225 564V491L228 464V0H121V572Q121 610 132 640T167 690T222 721T295 732ZM387 500V416H27V500H387Z" />
<glyph unicode="g" horiz-adv-x="540" d="M523 605L540 521Q537 521 534 521T528 522Q480 522 455 502T430 442L378 466Q378 506 395 537T443 587T515 605Q517 605 519 605T523 605ZM365 78Q441 78 483 45T525 -48Q525 -100 492 -137T403 -195T273 -215Q150 -215
91 -177T32 -82Q32 -42 60 -12T157 22L151 6Q109 15 84 38T58 105Q58 148 91 178T184 213L240 186H228Q182 182 163 165T144 127Q144 102 162 90T215 78H365ZM273 -135Q328 -135 363 -125T416 -98T434 -61Q434 -38 416 -24T349 -10H188Q160 -10 141 -24T122 -64Q122
-97 162 -116T273 -135ZM269 510Q335 510 383 489T458 430T485 341Q485 290 459 252T384 193T269 172Q165 172 110 218T54 341Q54 392 81 430T156 489T269 510ZM269 435Q223 435 193 410T162 341Q162 298 192 272T269 246Q316 246 346 272T377 341Q377 384 347
409T269 435Z" />
<glyph unicode="h" horiz-adv-x="619" d="M83 0V725H190V420Q215 467 257 488T352 510Q405 510 447 490T515 428T540 324V0H433V290Q433 364 403 393T326 422Q294 422 263 407T211 357T190 264V0H83Z" />
<glyph unicode="i" horiz-adv-x="274" d="M137 584Q102 584 84 601T65 651Q65 683 83 700T137 717Q171 717 189 700T208 651Q208 619 190 602T137 584ZM190 500V0H83V500H190Z" />
<glyph unicode="j" horiz-adv-x="274" d="M137 584Q102 584 84 601T65 651Q65 683 83 700T137 717Q171 717 189 700T208 651Q208 619 190 602T137 584ZM190 500V-44Q190 -108 167 -145T106 -199T26 -215Q-8 -215 -36 -206T-83 -182L-65 -96Q-51 -108 -32 -116T12
-124Q44 -124 63 -104T83 -34V500H190Z" />
<glyph unicode="k" horiz-adv-x="583" d="M555 500L332 272L309 256L152 93L151 215L428 500H555ZM190 725V0H83V725H190ZM345 332L567 0H443L265 271L345 332Z" />
<glyph unicode="l" horiz-adv-x="312" d="M187 725V140Q187 103 200 89T243 75Q261 75 273 77T305 87L293 7Q276 -1 254 -5T210 -10Q143 -10 112 24T80 131V725H187Z" />
<glyph unicode="m" horiz-adv-x="949" d="M83 0V500H178L183 416Q209 464 252 487T345 510Q399 510 444 486T513 412Q529 445 557 467T619 499T686 510Q734 510 776 490T844 429T870 324V0H763V307Q763 368 734 395T660 422Q625 422 596 405T548 355T530 272V0H423V307Q423
368 394 395T320 422Q290 422 260 406T210 356T190 266V0H83Z" />
<glyph unicode="n" horiz-adv-x="619" d="M83 0V500H178L185 370L171 384Q185 427 211 455T274 497T352 510Q405 510 447 490T515 428T540 324V0H433V291Q433 365 403 393T326 422Q293 422 262 407T211 357T190 266V0H83Z" />
<glyph unicode="o" horiz-adv-x="600" d="M300 510Q373 510 429 479T516 390T548 250Q548 169 517 111T429 21T300 -10Q227 -10 171 21T83 110T51 250Q51 331 83 389T171 479T300 510ZM300 426Q255 426 224 406T175 346T158 250Q158 194 175 155T223 95T300 74Q345
74 376 94T424 154T441 250Q441 307 424 346T376 405T300 426Z" />
<glyph unicode="p" horiz-adv-x="627" d="M83 -210V500H178L186 360L172 377Q184 416 209 446T271 493T354 510Q415 510 465 479T544 391T573 251Q573 169 544 111T464 21T351 -10Q287 -10 242 23T178 109L190 126V-210H83ZM328 77Q393 77 429 123T466 250Q466
331 430 377T330 424Q288 424 257 403T208 343T190 250Q190 197 207 158T255 98T328 77Z" />
<glyph unicode="q" horiz-adv-x="627" d="M437 -210V146L452 132Q445 88 420 56T357 7T275 -10Q213 -10 163 21T84 110T54 251Q54 333 85 391T168 479T282 510Q326 510 362 493T423 444T456 369L441 364L449 500H544V-210H437ZM298 77Q340 77 371 98T419 158T437
252Q437 308 420 346T372 404T300 424Q235 424 198 378T161 250Q161 169 197 123T298 77Z" />
<glyph unicode="r" horiz-adv-x="414" d="M83 0V500H174L184 410Q204 459 243 484T341 510Q356 510 371 508T396 500L381 406Q370 410 357 412T320 415Q289 415 259 399T210 349T190 265V0H83Z" />
<glyph unicode="s" horiz-adv-x="529" d="M273 -10Q198 -10 136 19T38 101L112 165Q134 124 175 100T275 75Q321 75 348 91T375 136Q375 155 363 169T315 192L210 214Q130 230 96 265T62 356Q62 397 86 432T156 488T268 510Q343 510 396 484T477 408L403 346Q384
386 347 405T270 425Q238 425 215 417T180 395T168 362Q168 342 183 327T237 304L351 280Q423 266 452 233T482 151Q482 103 457 67T385 10T273 -10Z" />
<glyph unicode="t" horiz-adv-x="424" d="M229 647V150Q229 113 248 96T301 79Q328 79 348 87T385 111L409 33Q386 13 353 2T278 -10Q235 -10 199 4T143 49T122 132V617L229 647ZM401 500V416H26V500H401Z" />
<glyph unicode="u" horiz-adv-x="618" d="M261 -10Q212 -10 171 8T104 66T79 170V500H186V197Q186 129 215 104T296 78Q321 78 344 86T387 113T416 161T427 229V500H534V0H440L435 81Q409 34 365 12T261 -10Z" />
<glyph unicode="v" horiz-adv-x="532" d="M412 500H524L325 0H208L8 500H125L267 93L412 500Z" />
<glyph unicode="w" horiz-adv-x="855" d="M719 500H835L667 0H550L424 371L305 0H188L21 500H136L250 105L374 500H481L605 105L719 500Z" />
<glyph unicode="x" horiz-adv-x="550" d="M161 500L302 286L322 283L525 0H398L251 220L228 228L32 500H161ZM522 500L326 232L304 233L144 0H22L235 285L256 283L399 500H522Z" />
<glyph unicode="y" horiz-adv-x="530" d="M522 500L303 -59Q281 -117 256 -151T197 -200T120 -215Q84 -215 54 -206T0 -180L26 -97Q45 -113 66 -121T113 -129Q140 -129 161 -115T200 -57L222 -3L169 121L13 500H133L244 186L273 92L306 195L411 500H522Z" />
<glyph unicode="z" horiz-adv-x="529" d="M51 0V74L293 356L354 418L267 416H53V500H472V426L230 144L170 82L265 84H481V0H51Z" />
<glyph unicode="{" horiz-adv-x="372" d="M331 -190Q264 -190 223 -175T163 -129T144 -52V133Q144 189 119 213T32 237V319Q93 319 118 343T144 423V609Q144 655 162 685T222 731T331 747V669Q280 669 259 654T237 607V408Q237 355 210 323T128 278Q182 266 209
234T237 149V-50Q237 -82 258 -97T331 -112V-190Z" />
<glyph unicode="|" horiz-adv-x="266" d="M180 725V-168H86V725H180Z" />
<glyph unicode="}" horiz-adv-x="372" d="M41 747Q108 747 149 732T209 686T228 609V424Q228 368 253 344T340 320V238Q279 238 254 214T228 134V-52Q228 -98 210 -128T150 -174T41 -190V-112Q92 -112 113 -97T135 -50V149Q135 202 162 234T244 279Q190 291 163
323T135 408V607Q135 639 114 654T41 669V747Z" />
<glyph unicode="~" horiz-adv-x="557" d="M514 396Q508 317 474 276T375 234Q341 234 316 244T272 269T235 294T194 305Q169 305 155 287T136 235H43Q49 316 83 357T183 398Q217 398 241 388T285 363T323 338T363 327Q388 327 402 345T421 396H514Z" />
<glyph unicode="&#xa0;" horiz-adv-x="325" />
<glyph unicode="&#xa1;" horiz-adv-x="274" d="M82 -160V104L96 290H180L194 104V-160H82ZM138 368Q104 368 84 387T63 439Q63 471 83 490T138 509Q171 509 191 490T212 439Q212 407 192 388T138 368Z" />
<glyph unicode="&#xa2;" horiz-adv-x="570" d="M311 -10Q236 -10 180 21T91 110T59 250Q59 331 91 389T179 479T309 510Q368 510 410 493T481 444T524 370L433 331Q419 381 388 407T310 433Q243 433 200 386T156 249Q156 189 176 149T231 88T310 67Q345 67 371
78T414 113T440 170L528 140Q514 94 485 61T412 9T311 -10ZM266 -100V600H344V-100H266Z" />
<glyph unicode="&#xa3;" horiz-adv-x="620" d="M72 275V345H472V275H72ZM153 -10Q102 -10 71 14T40 78Q40 104 55 124T97 156T164 168Q205 168 235 159T289 134T334 104T379 79T432 69Q473 69 491 91T509 163L587 160Q589 106 573 68T525 10T449 -10Q411 -10 380
1T321 30T268 65T216 95T161 107Q138 107 128 100T117 78Q117 63 129 55T162 47Q198 47 215 63T238 105T244 162Q244 204 230 238T185 321Q166 353 154 379T137 428T132 475Q132 534 160 578T237 646T350 670Q433 670 485 630T558 508L469 466Q455 522 428 552T346
582Q292 582 260 554T227 473Q227 454 230 437T242 401T266 352Q292 303 307 260T322 177Q322 144 314 112T285 51T233 7T153 -10Z" />
<glyph unicode="&#xa4;" horiz-adv-x="659" d="M330 538Q392 538 439 512T514 438T541 329Q541 268 514 221T440 146T330 119Q269 119 221 146T146 220T118 329Q118 390 145 437T221 511T330 538ZM330 452Q279 452 246 418T213 329Q213 275 246 240T330 205Q381
205 413 240T446 329Q446 383 414 417T330 452ZM125 598L248 473L187 413L60 533L125 598ZM186 247L245 186L125 59L60 124L186 247ZM473 243L599 124L534 59L413 183L473 243ZM534 598L599 533L476 411L415 472L534 598Z" />
<glyph unicode="&#xa5;" horiz-adv-x="634" d="M268 0V111H76V167H268V240H76V299H202L250 295L30 660H148L269 431L316 331H318L365 432L487 660H604L383 295L432 299H559V240H366V167H559V111H366V0H268Z" />
<glyph unicode="&#xa6;" horiz-adv-x="266" d="M180 725V357H86V725H180ZM180 200V-168H86V200H180Z" />
<glyph unicode="&#xa7;" horiz-adv-x="605" d="M419 126L367 172Q406 174 433 184T474 211T488 251Q488 279 468 299T392 330L240 357Q189 366 156 386T108 437T93 502Q93 552 120 590T196 649T313 670Q386 670 440 645T530 572L460 514Q432 554 395 571T308 589Q248
589 216 568T184 512Q184 495 191 481T218 456T274 438L403 416Q469 405 507 385T561 337T577 274Q577 236 560 205T508 153T419 126ZM290 -110Q203 -110 145 -82T56 -9L126 51Q148 14 190 -8T294 -31Q355 -31 390 -10T425 50Q425 73 408 89T351 112L188 145Q133
156 98 175T46 224T29 293Q29 330 46 358T95 403T169 427L209 386Q180 378 160 368T128 343T117 308Q117 281 139 260T216 228L373 200Q448 186 481 149T514 59Q514 10 487 -28T410 -88T290 -110Z" />
<glyph unicode="&#xa8;" horiz-adv-x="500" d="M149 700Q179 700 196 683T214 637Q214 609 197 592T149 574Q120 574 102 591T84 637Q84 666 102 683T149 700ZM351 700Q381 700 398 683T416 637Q416 609 399 592T351 574Q321 574 304 591T286 637Q286 666 303
683T351 700Z" />
<glyph unicode="&#xa9;" horiz-adv-x="806" d="M403 -10Q301 -10 224 34T104 156T60 330Q60 428 103 504T224 625T403 670Q504 670 581 626T702 505T746 330Q746 233 703 156T582 35T403 -10ZM403 61Q483 61 543 96T636 192T669 330Q669 406 636 467T543 564T403
599Q324 599 264 564T170 468T136 330Q136 254 169 193T263 96T403 61ZM409 142Q323 142 274 192T225 328Q225 415 274 465T409 515Q471 515 511 488T570 415L500 381Q488 410 466 424T410 438Q363 438 336 410T308 328Q308 276 335 247T410 218Q446 218 470 232T506
279L573 250Q553 197 513 170T409 142Z" />
<glyph unicode="&#xaa;" horiz-adv-x="399" d="M140 321Q87 321 57 345T27 410Q27 451 52 473T139 508L253 529V482L169 464Q136 458 124 448T112 418Q112 400 125 391T160 381Q178 381 197 387T228 409T241 452V540Q241 569 225 585T180 601Q152 601 129 588T92
540L28 568Q40 610 79 637T180 664Q250 664 288 634T326 541V409Q326 391 334 385T356 378Q372 378 379 382L373 331Q364 326 353 324T329 321Q294 321 274 340T253 396V412L265 403Q258 381 241 362T198 332T140 321ZM28 186V250H362V186H28Z" />
<glyph unicode="&#xab;" horiz-adv-x="521" d="M277 461L151 265L277 69H172L46 265L172 461H277ZM474 461L348 265L474 69H369L243 265L369 461H474Z" />
<glyph unicode="&#xac;" horiz-adv-x="604" d="M545 317V121H448V317H545ZM545 364V275H59V364H545Z" />
<glyph unicode="&#xad;" horiz-adv-x="515" d="M428 313V214H87V313H428Z" />
<glyph unicode="&#xae;" horiz-adv-x="806" d="M403 -10Q301 -10 224 34T104 156T60 330Q60 428 103 504T224 625T403 670Q504 670 581 626T702 505T746 330Q746 233 703 156T582 35T403 -10ZM475 146L382 294L447 317L564 146H475ZM403 61Q483 61 543 96T636
192T669 330Q669 406 636 467T543 564T403 599Q324 599 264 564T170 468T136 330Q136 254 169 193T263 96T403 61ZM260 146V514H419Q460 514 490 499T538 458T556 395Q556 340 517 309T415 277H337V146H260ZM337 333H411Q443 333 460 347T478 393Q478 424 461 438T411
453H337V333Z" />
<glyph unicode="&#xaf;" horiz-adv-x="500" d="M419 666V588H81V666H419Z" />
<glyph unicode="&#xb0;" horiz-adv-x="471" d="M235 327Q183 327 142 349T79 409T56 499Q56 549 78 588T142 648T235 670Q289 670 329 649T392 588T415 499Q415 448 392 410T329 349T235 327ZM235 406Q277 406 303 432T329 499Q329 540 303 566T235 592Q195 592
169 566T142 499Q142 459 168 433T235 406Z" />
<glyph unicode="&#xb1;" horiz-adv-x="604" d="M347 644V163H258V644H347ZM548 447V359H56V447H548ZM548 87V0H56V87H548Z" />
<glyph unicode="&#xb2;" horiz-adv-x="373" d="M36 333V390Q59 406 82 421T127 452Q173 487 200 512T237 559T248 601Q248 630 231 648T180 666Q145 666 125 643T104 578L24 601Q28 664 70 699T183 735Q237 735 271 717T321 669T338 607Q338 579 324 552T281 496T208
436Q194 426 179 418T148 400V399Q159 400 183 401T220 402H346V333H36Z" />
<glyph unicode="&#xb3;" horiz-adv-x="367" d="M185 735Q253 735 290 705T327 626Q327 597 316 576T285 545T247 533V531Q270 531 290 521T323 492T336 442Q336 407 316 381T260 341T179 327Q114 327 75 352T20 426L101 458Q106 426 125 410T179 394Q210 394 229
410T248 453Q248 481 228 492T172 503Q168 503 164 503T155 502V558Q159 557 162 557T169 557Q203 557 221 570T239 611Q239 638 223 652T179 666Q150 666 132 652T109 609L31 635Q43 686 85 710T185 735Z" />
<glyph unicode="&#xb4;" horiz-adv-x="582" d="M274 746H382L283 578H201L274 746Z" />
<glyph unicode="&#xb5;" horiz-adv-x="622" d="M83 -210V500H190V198Q190 135 219 107T300 78Q336 78 365 94T413 145T432 237V500H539V0H448L441 84Q418 37 377 14T285 -10Q252 -10 224 0T177 33L190 51V-210H83Z" />
<glyph unicode="&#xb6;" horiz-adv-x="684" d="M295 -100V187Q219 187 162 216T72 298T39 423Q39 496 73 549T170 631T316 660H601V-100H510V574H388V-100H295ZM294 273V574Q242 574 206 556T152 503T133 423Q133 376 151 343T206 291T294 273Z" />
<glyph unicode="&#xb7;" horiz-adv-x="240" d="M121 427Q155 427 175 408T196 355Q196 322 176 302T121 282Q86 282 66 302T45 355Q45 388 65 407T121 427Z" />
<glyph unicode="&#xb8;" horiz-adv-x="500" d="M198 6L240 31Q305 15 333 -17T362 -96Q362 -147 327 -181T235 -215Q202 -215 179 -207T138 -186L160 -121Q173 -130 188 -136T225 -143Q252 -143 269 -126T287 -77Q287 -51 268 -33T198 6Z" />
<glyph unicode="&#xb9;" horiz-adv-x="259" d="M134 730H209V333H123V574Q123 587 123 606T125 643Q103 623 74 608T13 588V661Q32 664 56 675T102 700T134 730Z" />
<glyph unicode="&#xba;" horiz-adv-x="379" d="M189 321Q116 321 71 366T25 492Q25 574 70 619T189 664Q263 664 308 619T354 492Q354 412 309 367T189 321ZM36 186V250H343V186H36ZM189 384Q229 384 248 412T267 492Q267 545 248 573T189 602Q150 602 131 574T112
492Q112 440 131 412T189 384Z" />
<glyph unicode="&#xbb;" horiz-adv-x="521" d="M244 69L370 265L244 461H349L475 265L349 69H244ZM47 69L173 265L47 461H152L278 265L152 69H47Z" />
<glyph unicode="&#xbc;" horiz-adv-x="813" d="M134 921H209V524H123V765Q123 778 123 797T125 834Q103 814 74 799T13 779V852Q32 855 56 866T102 891T134 921ZM99 0L576 660H667L191 0H99ZM795 150V91H727V-4H653V91H454V134L630 393H727V150H795ZM533 150H653V253Q653
273 654 292T656 331H653Q648 319 639 303T622 275L533 150Z" />
<glyph unicode="&#xbd;" horiz-adv-x="881" d="M134 921H209V524H123V765Q123 778 123 797T125 834Q103 814 74 799T13 779V852Q32 855 56 866T102 891T134 921ZM99 0L576 660H667L191 0H99ZM544 -4V53Q567 69 590 84T635 115Q681 150 708 175T745 222T756 264Q756
293 739 311T688 329Q653 329 633 306T612 241L532 264Q536 327 578 362T691 398Q745 398 779 380T829 332T846 270Q846 242 832 215T789 159T716 99Q702 89 687 81T656 63V62Q667 63 691 64T728 65H854V-4H544Z" />
<glyph unicode="&#xbe;" horiz-adv-x="922" d="M185 926Q253 926 290 896T327 817Q327 788 316 767T285 736T247 724V722Q270 722 290 712T323 683T336 633Q336 598 316 572T260 532T179 518Q114 518 75 543T20 617L101 649Q106 617 125 601T179 585Q210 585 229
601T248 644Q248 672 228 683T172 694Q168 694 164 694T155 693V749Q159 748 162 748T169 748Q203 748 221 761T239 802Q239 829 223 843T179 857Q150 857 132 843T109 800L31 826Q43 877 85 901T185 926ZM207 0L684 660H775L299 0H207ZM904 150V91H836V-4H762V91H563V134L739
393H836V150H904ZM642 150H762V253Q762 273 763 292T765 331H762Q757 319 748 303T731 275L642 150Z" />
<glyph unicode="&#xbf;" horiz-adv-x="558" d="M276 -170Q209 -170 157 -150T75 -90T45 4Q45 63 70 102T139 162T234 189L237 290H340V139Q274 131 235 116T177 77T159 18Q159 -25 189 -50T283 -76Q342 -76 379 -43T423 49L522 4Q511 -48 479 -87T396 -148T276
-170ZM289 368Q255 368 235 387T214 439Q214 471 234 490T289 509Q322 509 342 490T363 439Q363 407 343 388T289 368Z" />
<glyph unicode="&#xc0;" horiz-adv-x="665" d="M20 0L269 660H397L646 0H533L363 472L333 567H330L302 474L130 0H20ZM153 173V260H510V173H153ZM315 897L380 737H298L211 897H315Z" />
<glyph unicode="&#xc1;" horiz-adv-x="665" d="M20 0L269 660H397L646 0H533L363 472L333 567H330L302 474L130 0H20ZM153 173V260H510V173H153ZM346 897H450L363 737H281L346 897Z" />
<glyph unicode="&#xc2;" horiz-adv-x="665" d="M20 0L269 660H397L646 0H533L363 472L333 567H330L302 474L130 0H20ZM153 173V260H510V173H153ZM496 737H409L333 839L257 737H170L277 897H389L496 737Z" />
<glyph unicode="&#xc3;" horiz-adv-x="665" d="M20 0L269 660H397L646 0H533L363 472L333 567H330L302 474L130 0H20ZM153 173V260H510V173H153ZM518 877Q516 830 502 799T463 752T403 736Q375 736 356 746T322 768T294 791T265 801Q244 801 234 784T219 735H146Q150
806 180 841T264 877Q291 877 310 867T344 845T371 822T399 812Q420 812 430 829T446 877H518Z" />
<glyph unicode="&#xc4;" horiz-adv-x="665" d="M20 0L269 660H397L646 0H533L363 472L333 567H330L302 474L130 0H20ZM153 173V260H510V173H153ZM232 860Q262 860 279 843T297 797Q297 769 280 752T232 734Q203 734 185 751T167 797Q167 826 185 843T232 860ZM434
860Q464 860 481 843T499 797Q499 769 482 752T434 734Q404 734 387 751T369 797Q369 826 386 843T434 860Z" />
<glyph unicode="&#xc5;" horiz-adv-x="665" d="M20 0L269 660H397L646 0H533L363 472L333 567H330L302 474L130 0H20ZM153 173V260H510V173H153ZM332 845Q390 845 425 812T461 725Q461 671 426 638T332 604Q273 604 237 637T201 725Q201 779 237 812T332 845ZM332
789Q303 789 285 771T266 725Q266 697 284 679T332 661Q361 661 379 679T397 725Q397 753 379 771T332 789Z" />
<glyph unicode="&#xc6;" horiz-adv-x="945" d="M546 90H899V0H442V208H224L115 0H3L358 660H885V570H546V378H804V289H546V90ZM266 294H442V571H416L266 294Z" />
<glyph unicode="&#xc7;" horiz-adv-x="684" d="M645 175Q625 115 585 74T491 11T372 -10Q277 -10 207 31T99 148T61 330Q61 436 99 512T207 629T371 670Q436 670 488 652T578 598T635 508L534 463Q514 522 476 549T377 577Q316 577 270 548T199 464T173 330Q173
252 197 197T266 112T374 83Q435 83 479 114T543 209L645 175ZM306 6L348 31Q413 15 441 -17T470 -96Q470 -147 435 -181T343 -215Q310 -215 287 -207T246 -186L268 -121Q281 -130 296 -136T333 -143Q360 -143 377 -126T395 -77Q395 -51 376 -33T306 6Z" />
<glyph unicode="&#xc8;" horiz-adv-x="636" d="M98 0V660H576V568H205V378H495V288H205V92H590V0H98ZM324 897L389 737H307L220 897H324Z" />
<glyph unicode="&#xc9;" horiz-adv-x="636" d="M98 0V660H576V568H205V378H495V288H205V92H590V0H98ZM348 897H452L365 737H283L348 897Z" />
<glyph unicode="&#xca;" horiz-adv-x="636" d="M98 0V660H576V568H205V378H495V288H205V92H590V0H98ZM500 737H413L337 839L261 737H174L281 897H393L500 737Z" />
<glyph unicode="&#xcb;" horiz-adv-x="636" d="M98 0V660H576V568H205V378H495V288H205V92H590V0H98ZM236 860Q266 860 283 843T301 797Q301 769 284 752T236 734Q207 734 189 751T171 797Q171 826 189 843T236 860ZM438 860Q468 860 485 843T503 797Q503 769
486 752T438 734Q408 734 391 751T373 797Q373 826 390 843T438 860Z" />
<glyph unicode="&#xcc;" horiz-adv-x="303" d="M205 660V0H98V660H205ZM130 897L195 737H113L26 897H130Z" />
<glyph unicode="&#xcd;" horiz-adv-x="303" d="M205 660V0H98V660H205ZM172 897H276L189 737H107L172 897Z" />
<glyph unicode="&#xce;" horiz-adv-x="303" d="M205 660V0H98V660H205ZM314 737H227L151 839L75 737H-12L95 897H207L314 737Z" />
<glyph unicode="&#xcf;" horiz-adv-x="303" d="M60 860Q90 860 107 843T125 797Q125 769 108 752T60 734Q31 734 14 751T-4 797Q-4 826 13 843T60 860ZM242 860Q272 860 289 843T307 797Q307 769 290 752T242 734Q213 734 195 751T177 797Q177 826 195 843T242
860ZM205 660V0H98V660H205Z" />
<glyph unicode="&#xd0;" horiz-adv-x="738" d="M22 288V377H400V288H22ZM349 660Q504 660 590 575T677 330Q677 171 591 86T349 0H116V660H349ZM349 91Q454 91 510 153T566 330Q566 444 510 506T349 569H223V91H349Z" />
<glyph unicode="&#xd1;" horiz-adv-x="736" d="M639 660V0H512L257 416L193 533H192L196 426V0H98V660H224L478 245L543 126H544L540 234V660H639ZM556 877Q554 830 540 799T501 752T441 736Q413 736 394 746T360 768T332 791T303 801Q282 801 272 784T257 735H184Q188
806 218 841T302 877Q329 877 348 867T382 845T409 822T437 812Q458 812 468 829T484 877H556Z" />
<glyph unicode="&#xd2;" horiz-adv-x="745" d="M372 670Q468 670 538 629T646 512T684 330Q684 224 646 148T538 31T372 -10Q277 -10 207 31T99 148T61 330Q61 436 99 512T207 629T372 670ZM372 577Q310 577 266 548T197 464T173 330Q173 252 197 197T265 112T372
83Q435 83 479 112T548 196T572 330Q572 409 548 464T480 548T372 577ZM351 897L416 737H334L247 897H351Z" />
<glyph unicode="&#xd3;" horiz-adv-x="745" d="M372 670Q468 670 538 629T646 512T684 330Q684 224 646 148T538 31T372 -10Q277 -10 207 31T99 148T61 330Q61 436 99 512T207 629T372 670ZM372 577Q310 577 266 548T197 464T173 330Q173 252 197 197T265 112T372
83Q435 83 479 112T548 196T572 330Q572 409 548 464T480 548T372 577ZM385 897H489L402 737H320L385 897Z" />
<glyph unicode="&#xd4;" horiz-adv-x="745" d="M372 670Q468 670 538 629T646 512T684 330Q684 224 646 148T538 31T372 -10Q277 -10 207 31T99 148T61 330Q61 436 99 512T207 629T372 670ZM372 577Q310 577 266 548T197 464T173 330Q173 252 197 197T265 112T372
83Q435 83 479 112T548 196T572 330Q572 409 548 464T480 548T372 577ZM535 737H448L372 839L296 737H209L316 897H428L535 737Z" />
<glyph unicode="&#xd5;" horiz-adv-x="745" d="M372 670Q468 670 538 629T646 512T684 330Q684 224 646 148T538 31T372 -10Q277 -10 207 31T99 148T61 330Q61 436 99 512T207 629T372 670ZM372 577Q310 577 266 548T197 464T173 330Q173 252 197 197T265 112T372
83Q435 83 479 112T548 196T572 330Q572 409 548 464T480 548T372 577ZM557 877Q555 830 541 799T502 752T442 736Q414 736 395 746T361 768T333 791T304 801Q283 801 273 784T258 735H185Q189 806 219 841T303 877Q330 877 349 867T383 845T410 822T438 812Q459
812 469 829T485 877H557Z" />
<glyph unicode="&#xd6;" horiz-adv-x="745" d="M372 670Q468 670 538 629T646 512T684 330Q684 224 646 148T538 31T372 -10Q277 -10 207 31T99 148T61 330Q61 436 99 512T207 629T372 670ZM372 577Q310 577 266 548T197 464T173 330Q173 252 197 197T265 112T372
83Q435 83 479 112T548 196T572 330Q572 409 548 464T480 548T372 577ZM271 860Q301 860 318 843T336 797Q336 769 319 752T271 734Q242 734 224 751T206 797Q206 826 224 843T271 860ZM473 860Q503 860 520 843T538 797Q538 769 521 752T473 734Q443 734 426 751T408
797Q408 826 425 843T473 860Z" />
<glyph unicode="&#xd7;" horiz-adv-x="604" d="M466 91L530 156L138 549L73 484L466 91ZM138 91L530 484L466 549L73 156L138 91Z" />
<glyph unicode="&#xd8;" horiz-adv-x="745" d="M236 78L189 116L504 563L552 527L236 78ZM80 -34L184 111L232 73L154 -34H80ZM559 535L511 572L592 682H665L559 535ZM372 670Q468 670 538 629T646 512T684 330Q684 224 646 148T538 31T372 -10Q277 -10 207 31T99
148T61 330Q61 436 99 512T207 629T372 670ZM372 577Q310 577 266 548T197 464T173 330Q173 252 197 197T265 112T372 83Q435 83 479 112T548 196T572 330Q572 409 548 464T480 548T372 577Z" />
<glyph unicode="&#xd9;" horiz-adv-x="709" d="M624 660V253Q624 122 555 56T354 -10Q224 -10 155 56T85 253V660H192V266Q192 173 232 128T354 83Q437 83 477 128T517 266V660H624ZM341 876L406 716H324L237 876H341Z" />
<glyph unicode="&#xda;" horiz-adv-x="709" d="M624 660V253Q624 122 555 56T354 -10Q224 -10 155 56T85 253V660H192V266Q192 173 232 128T354 83Q437 83 477 128T517 266V660H624ZM367 876H471L384 716H302L367 876Z" />
<glyph unicode="&#xdb;" horiz-adv-x="709" d="M624 660V253Q624 122 555 56T354 -10Q224 -10 155 56T85 253V660H192V266Q192 173 232 128T354 83Q437 83 477 128T517 266V660H624ZM517 716H430L354 818L278 716H191L298 876H410L517 716Z" />
<glyph unicode="&#xdc;" horiz-adv-x="709" d="M624 660V253Q624 122 555 56T354 -10Q224 -10 155 56T85 253V660H192V266Q192 173 232 128T354 83Q437 83 477 128T517 266V660H624ZM253 839Q283 839 300 822T318 776Q318 748 301 731T253 713Q224 713 206 730T188
776Q188 805 206 822T253 839ZM455 839Q485 839 502 822T520 776Q520 748 503 731T455 713Q425 713 408 730T390 776Q390 805 407 822T455 839Z" />
<glyph unicode="&#xdd;" d="M588 660L352 253V0H245V253L10 660H129L247 447L299 349L351 447L468 660H588ZM312 881H416L329 721H247L312 881Z" />
<glyph unicode="&#xde;" horiz-adv-x="641" d="M341 547Q465 547 528 493T592 337Q592 236 529 182T341 127H151V218H341Q481 218 481 337Q481 398 446 427T341 456H151V547H341ZM205 660V0H98V660H205Z" />
<glyph unicode="&#xdf;" horiz-adv-x="626" d="M399 379Q462 379 500 354T557 287T576 199Q576 142 554 95T488 19T375 -10Q328 -10 294 0T245 23L269 104Q286 93 307 86T364 78Q415 78 444 114T474 206Q474 269 439 301T335 334H277L282 419H325Q385 419 415
453T446 535Q446 589 412 614T326 640Q249 640 220 597T190 465V0H83V486Q83 558 106 613T185 699T333 730Q407 730 455 705T528 640T553 552Q553 512 536 474T484 411T399 381V379Z" />
<glyph unicode="&#xe0;" horiz-adv-x="570" d="M372 321Q372 371 345 398T269 426Q224 426 192 405T145 337L55 375Q74 436 129 473T273 510Q333 510 379 491T451 432T478 332V109Q478 72 515 72Q533 72 550 77L544 3Q521 -8 486 -8Q454 -8 429 3T389 38T374 97V104L396
105Q387 66 359 41T294 3T219 -10Q172 -10 135 5T76 50T54 126Q54 182 90 218T194 267L388 305L387 230L246 201Q204 193 183 178T162 134Q162 106 183 90T241 73Q266 73 289 79T332 98T361 133T372 185V321ZM252 746L325 578H243L144 746H252Z" />
<glyph unicode="&#xe1;" horiz-adv-x="570" d="M372 321Q372 371 345 398T269 426Q224 426 192 405T145 337L55 375Q74 436 129 473T273 510Q333 510 379 491T451 432T478 332V109Q478 72 515 72Q533 72 550 77L544 3Q521 -8 486 -8Q454 -8 429 3T389 38T374 97V104L396
105Q387 66 359 41T294 3T219 -10Q172 -10 135 5T76 50T54 126Q54 182 90 218T194 267L388 305L387 230L246 201Q204 193 183 178T162 134Q162 106 183 90T241 73Q266 73 289 79T332 98T361 133T372 185V321ZM292 746H400L301 578H219L292 746Z" />
<glyph unicode="&#xe2;" horiz-adv-x="570" d="M372 321Q372 371 345 398T269 426Q224 426 192 405T145 337L55 375Q74 436 129 473T273 510Q333 510 379 491T451 432T478 332V109Q478 72 515 72Q533 72 550 77L544 3Q521 -8 486 -8Q454 -8 429 3T389 38T374 97V104L396
105Q387 66 359 41T294 3T219 -10Q172 -10 135 5T76 50T54 126Q54 182 90 218T194 267L388 305L387 230L246 201Q204 193 183 178T162 134Q162 106 183 90T241 73Q266 73 289 79T332 98T361 133T372 185V321ZM445 571H357L276 678L195 571H107L220 740H332L445
571Z" />
<glyph unicode="&#xe3;" horiz-adv-x="570" d="M372 321Q372 371 345 398T269 426Q224 426 192 405T145 337L55 375Q74 436 129 473T273 510Q333 510 379 491T451 432T478 332V109Q478 72 515 72Q533 72 550 77L544 3Q521 -8 486 -8Q454 -8 429 3T389 38T374 97V104L396
105Q387 66 359 41T294 3T219 -10Q172 -10 135 5T76 50T54 126Q54 182 90 218T194 267L388 305L387 230L246 201Q204 193 183 178T162 134Q162 106 183 90T241 73Q266 73 289 79T332 98T361 133T372 185V321ZM461 717Q459 670 445 639T406 592T346 576Q318 576
299 586T265 608T237 631T208 641Q187 641 177 624T162 575H89Q93 646 123 681T207 717Q234 717 253 707T287 685T314 662T342 652Q363 652 373 669T389 717H461Z" />
<glyph unicode="&#xe4;" horiz-adv-x="570" d="M372 321Q372 371 345 398T269 426Q224 426 192 405T145 337L55 375Q74 436 129 473T273 510Q333 510 379 491T451 432T478 332V109Q478 72 515 72Q533 72 550 77L544 3Q521 -8 486 -8Q454 -8 429 3T389 38T374 97V104L396
105Q387 66 359 41T294 3T219 -10Q172 -10 135 5T76 50T54 126Q54 182 90 218T194 267L388 305L387 230L246 201Q204 193 183 178T162 134Q162 106 183 90T241 73Q266 73 289 79T332 98T361 133T372 185V321ZM175 700Q205 700 222 683T240 637Q240 609 223 592T175
574Q146 574 128 591T110 637Q110 666 128 683T175 700ZM377 700Q407 700 424 683T442 637Q442 609 425 592T377 574Q347 574 330 591T312 637Q312 666 329 683T377 700Z" />
<glyph unicode="&#xe5;" horiz-adv-x="570" d="M372 321Q372 371 345 398T269 426Q224 426 192 405T145 337L55 375Q74 436 129 473T273 510Q333 510 379 491T451 432T478 332V109Q478 72 515 72Q533 72 550 77L544 3Q521 -8 486 -8Q454 -8 429 3T389 38T374 97V104L396
105Q387 66 359 41T294 3T219 -10Q172 -10 135 5T76 50T54 126Q54 182 90 218T194 267L388 305L387 230L246 201Q204 193 183 178T162 134Q162 106 183 90T241 73Q266 73 289 79T332 98T361 133T372 185V321ZM274 809Q332 809 367 776T403 689Q403 635 368 602T274
568Q215 568 179 601T143 689Q143 743 179 776T274 809ZM274 753Q245 753 227 735T208 689Q208 661 226 643T274 625Q303 625 321 643T339 689Q339 717 321 735T274 753Z" />
<glyph unicode="&#xe6;" horiz-adv-x="891" d="M224 -10Q175 -10 137 5T76 50T53 126Q53 182 89 217T191 266L372 302V321Q372 371 344 398T269 426Q227 426 195 405T145 337L57 375Q68 415 97 445T170 493T267 510Q336 510 386 483T455 395L422 397Q441 433 470
458T538 496T620 510Q689 510 738 480T813 398T839 280Q839 263 838 248T835 218H478V218Q481 148 522 112T623 75Q668 75 697 94T745 147L830 107Q812 71 782 45T712 4T625 -10Q546 -10 489 27T408 135L436 138Q432 105 413 78T365 31T300 1T224 -10ZM243 73Q268
73 291 79T333 99T361 133T372 183V227L246 201Q203 193 183 178T163 134Q163 108 183 91T243 73ZM480 300H735Q734 340 718 368T676 410T615 425Q560 425 525 393T480 300Z" />
<glyph unicode="&#xe7;" horiz-adv-x="562" d="M299 510Q359 510 401 493T473 443T517 370L416 330Q403 376 375 400T300 425Q255 425 223 405T175 345T158 249Q158 193 175 154T224 95T300 75Q334 75 359 86T400 119T423 172L520 139Q506 94 477 61T403 9T302
-10Q228 -10 171 21T83 110T51 250Q51 331 82 389T170 479T299 510ZM237 6L279 31Q344 15 372 -17T401 -96Q401 -147 366 -181T274 -215Q241 -215 218 -207T177 -186L199 -121Q212 -130 227 -136T264 -143Q291 -143 308 -126T326 -77Q326 -51 307 -33T237 6Z" />
<glyph unicode="&#xe8;" horiz-adv-x="578" d="M303 -10Q228 -10 171 21T83 110T51 250Q51 331 82 389T170 479T297 510Q370 510 421 480T499 398T526 280Q526 262 525 246T522 218H120V300H475L422 284Q422 352 388 388T295 425Q252 425 220 405T171 346T154
249Q154 193 172 154T223 95T301 75Q351 75 382 94T431 147L516 107Q498 71 468 45T395 4T303 -10ZM268 746L341 578H259L160 746H268Z" />
<glyph unicode="&#xe9;" horiz-adv-x="578" d="M303 -10Q228 -10 171 21T83 110T51 250Q51 331 82 389T170 479T297 510Q370 510 421 480T499 398T526 280Q526 262 525 246T522 218H120V300H475L422 284Q422 352 388 388T295 425Q252 425 220 405T171 346T154
249Q154 193 172 154T223 95T301 75Q351 75 382 94T431 147L516 107Q498 71 468 45T395 4T303 -10ZM308 746H416L317 578H235L308 746Z" />
<glyph unicode="&#xea;" horiz-adv-x="578" d="M303 -10Q228 -10 171 21T83 110T51 250Q51 331 82 389T170 479T297 510Q370 510 421 480T499 398T526 280Q526 262 525 246T522 218H120V300H475L422 284Q422 352 388 388T295 425Q252 425 220 405T171 346T154
249Q154 193 172 154T223 95T301 75Q351 75 382 94T431 147L516 107Q498 71 468 45T395 4T303 -10ZM461 571H373L292 678L211 571H123L236 740H348L461 571Z" />
<glyph unicode="&#xeb;" horiz-adv-x="578" d="M303 -10Q228 -10 171 21T83 110T51 250Q51 331 82 389T170 479T297 510Q370 510 421 480T499 398T526 280Q526 262 525 246T522 218H120V300H475L422 284Q422 352 388 388T295 425Q252 425 220 405T171 346T154
249Q154 193 172 154T223 95T301 75Q351 75 382 94T431 147L516 107Q498 71 468 45T395 4T303 -10ZM191 700Q221 700 238 683T256 637Q256 609 239 592T191 574Q162 574 144 591T126 637Q126 666 144 683T191 700ZM393 700Q423 700 440 683T458 637Q458 609 441
592T393 574Q363 574 346 591T328 637Q328 666 345 683T393 700Z" />
<glyph unicode="&#xec;" horiz-adv-x="274" d="M190 500V0H83V500H190ZM113 746L186 578H104L5 746H113Z" />
<glyph unicode="&#xed;" horiz-adv-x="274" d="M190 500V0H83V500H190ZM153 746H261L162 578H80L153 746Z" />
<glyph unicode="&#xee;" horiz-adv-x="274" d="M190 500V0H83V500H190ZM306 571H218L137 678L56 571H-32L81 740H193L306 571Z" />
<glyph unicode="&#xef;" horiz-adv-x="274" d="M222 574Q192 574 175 591T157 637Q157 667 174 684T222 701Q252 701 269 684T286 637Q286 608 269 591T222 574ZM52 574Q23 574 6 591T-12 637Q-12 667 5 684T52 701Q82 701 99 684T117 637Q117 608 100 591T52
574ZM190 500V0H83V500H190Z" />
<glyph unicode="&#xf0;" horiz-adv-x="615" d="M298 -10Q223 -10 169 19T86 105T56 239Q56 317 87 373T171 458T291 488Q355 488 397 464T463 398L455 392Q445 448 425 495T373 582T298 659T196 728H320Q375 697 417 654T490 557T535 436T551 292Q551 202 522
134T437 28T298 -10ZM303 75Q350 75 382 97T431 157T448 239Q448 293 431 329T383 385T307 405Q263 405 231 386T182 330T165 239Q165 160 202 118T303 75ZM203 535L188 596L381 637L415 587L203 535ZM425 589L393 639L541 677L557 618L425 589Z" />
<glyph unicode="&#xf1;" horiz-adv-x="619" d="M83 0V500H178L185 370L171 384Q185 427 211 455T274 497T352 510Q405 510 447 490T515 428T540 324V0H433V291Q433 365 403 393T326 422Q293 422 262 407T211 357T190 266V0H83ZM501 717Q499 670 485 639T446 592T386
576Q358 576 339 586T305 608T277 631T248 641Q227 641 217 624T202 575H129Q133 646 163 681T247 717Q274 717 293 707T327 685T354 662T382 652Q403 652 413 669T429 717H501Z" />
<glyph unicode="&#xf2;" horiz-adv-x="600" d="M300 510Q373 510 429 479T516 390T548 250Q548 169 517 111T429 21T300 -10Q227 -10 171 21T83 110T51 250Q51 331 83 389T171 479T300 510ZM300 426Q255 426 224 406T175 346T158 250Q158 194 175 155T223 95T300
74Q345 74 376 94T424 154T441 250Q441 307 424 346T376 405T300 426ZM276 746L349 578H267L168 746H276Z" />
<glyph unicode="&#xf3;" horiz-adv-x="600" d="M300 510Q373 510 429 479T516 390T548 250Q548 169 517 111T429 21T300 -10Q227 -10 171 21T83 110T51 250Q51 331 83 389T171 479T300 510ZM300 426Q255 426 224 406T175 346T158 250Q158 194 175 155T223 95T300
74Q345 74 376 94T424 154T441 250Q441 307 424 346T376 405T300 426ZM316 746H424L325 578H243L316 746Z" />
<glyph unicode="&#xf4;" horiz-adv-x="600" d="M300 510Q373 510 429 479T516 390T548 250Q548 169 517 111T429 21T300 -10Q227 -10 171 21T83 110T51 250Q51 331 83 389T171 479T300 510ZM300 426Q255 426 224 406T175 346T158 250Q158 194 175 155T223 95T300
74Q345 74 376 94T424 154T441 250Q441 307 424 346T376 405T300 426ZM469 571H381L300 678L219 571H131L244 740H356L469 571Z" />
<glyph unicode="&#xf5;" horiz-adv-x="600" d="M300 510Q373 510 429 479T516 390T548 250Q548 169 517 111T429 21T300 -10Q227 -10 171 21T83 110T51 250Q51 331 83 389T171 479T300 510ZM300 426Q255 426 224 406T175 346T158 250Q158 194 175 155T223 95T300
74Q345 74 376 94T424 154T441 250Q441 307 424 346T376 405T300 426ZM485 717Q483 670 469 639T430 592T370 576Q342 576 323 586T289 608T261 631T232 641Q211 641 201 624T186 575H113Q117 646 147 681T231 717Q258 717 277 707T311 685T338 662T366 652Q387
652 397 669T413 717H485Z" />
<glyph unicode="&#xf6;" horiz-adv-x="600" d="M300 510Q373 510 429 479T516 390T548 250Q548 169 517 111T429 21T300 -10Q227 -10 171 21T83 110T51 250Q51 331 83 389T171 479T300 510ZM300 426Q255 426 224 406T175 346T158 250Q158 194 175 155T223 95T300
74Q345 74 376 94T424 154T441 250Q441 307 424 346T376 405T300 426ZM199 700Q229 700 246 683T264 637Q264 609 247 592T199 574Q170 574 152 591T134 637Q134 666 152 683T199 700ZM401 700Q431 700 448 683T466 637Q466 609 449 592T401 574Q371 574 354 591T336
637Q336 666 353 683T401 700Z" />
<glyph unicode="&#xf7;" horiz-adv-x="610" d="M551 364V275H59V364H551ZM305 187Q337 187 356 168T375 117Q375 85 356 66T305 47Q273 47 254 66T234 117Q234 148 253 167T305 187ZM305 589Q337 589 356 570T375 519Q375 488 356 469T305 450Q273 450 254 469T234
519Q234 551 253 570T305 589Z" />
<glyph unicode="&#xf8;" horiz-adv-x="600" d="M300 510Q373 510 429 479T516 390T548 250Q548 169 517 111T429 21T300 -10Q227 -10 171 21T83 110T51 250Q51 331 83 389T171 479T300 510ZM300 426Q255 426 224 406T175 346T158 250Q158 194 175 155T223 95T300
74Q345 74 376 94T424 154T441 250Q441 307 424 346T376 405T300 426ZM308 -28L737 528H804L375 -28H308Z" />
<glyph unicode="&#xf9;" horiz-adv-x="618" d="M261 -10Q212 -10 171 8T104 66T79 170V500H186V197Q186 129 215 104T296 78Q321 78 344 86T387 113T416 161T427 229V500H534V0H440L435 81Q409 34 365 12T261 -10ZM282 738L355 570H273L174 738H282Z" />
<glyph unicode="&#xfa;" horiz-adv-x="618" d="M261 -10Q212 -10 171 8T104 66T79 170V500H186V197Q186 129 215 104T296 78Q321 78 344 86T387 113T416 161T427 229V500H534V0H440L435 81Q409 34 365 12T261 -10ZM322 738H430L331 570H249L322 738Z" />
<glyph unicode="&#xfb;" horiz-adv-x="618" d="M261 -10Q212 -10 171 8T104 66T79 170V500H186V197Q186 129 215 104T296 78Q321 78 344 86T387 113T416 161T427 229V500H534V0H440L435 81Q409 34 365 12T261 -10ZM475 563H387L306 670L225 563H137L250 732H362L475 563Z" />
<glyph unicode="&#xfc;" horiz-adv-x="618" d="M261 -10Q212 -10 171 8T104 66T79 170V500H186V197Q186 129 215 104T296 78Q321 78 344 86T387 113T416 161T427 229V500H534V0H440L435 81Q409 34 365 12T261 -10ZM205 692Q235 692 252 675T270 629Q270 601 253
584T205 566Q176 566 158 583T140 629Q140 658 158 675T205 692ZM407 692Q437 692 454 675T472 629Q472 601 455 584T407 566Q377 566 360 583T342 629Q342 658 359 675T407 692Z" />
<glyph unicode="&#xfd;" horiz-adv-x="530" d="M522 500L303 -59Q281 -117 256 -151T197 -200T120 -215Q84 -215 54 -206T0 -180L26 -97Q45 -113 66 -121T113 -129Q140 -129 161 -115T200 -57L222 -3L169 121L13 500H133L244 186L273 92L306 195L411 500H522ZM287
738H395L296 570H214L287 738Z" />
<glyph unicode="&#xfe;" horiz-adv-x="627" d="M83 -210V725H190V373L178 391Q197 443 243 476T354 510Q414 510 464 479T544 390T573 249Q573 169 544 111T464 21T351 -10Q287 -10 242 23T178 109L190 126V-210H83ZM328 77Q393 77 429 123T466 250Q466 331 430
377T330 424Q288 424 257 403T208 343T190 250Q190 197 207 158T255 98T328 77Z" />
<glyph unicode="&#xff;" horiz-adv-x="530" d="M522 500L303 -59Q281 -117 256 -151T197 -200T120 -215Q84 -215 54 -206T0 -180L26 -97Q45 -113 66 -121T113 -129Q140 -129 161 -115T200 -57L222 -3L169 121L13 500H133L244 186L273 92L306 195L411 500H522ZM170
692Q200 692 217 675T235 629Q235 601 218 584T170 566Q141 566 123 583T105 629Q105 658 123 675T170 692ZM372 692Q402 692 419 675T437 629Q437 601 420 584T372 566Q342 566 325 583T307 629Q307 658 324 675T372 692Z" />
<glyph unicode="&#x2013;" horiz-adv-x="672" d="M592 310V217H81V310H592Z" />
<glyph unicode="&#x2014;" horiz-adv-x="1011" d="M931 310V217H81V310H931Z" />
<glyph unicode="&#x2018;" horiz-adv-x="267" d="M134 413Q106 413 88 426T59 463T49 517Q49 554 63 588T103 651T167 698L217 655Q190 645 169 629T134 593T113 552L117 550Q122 553 128 555T147 557Q161 557 175 550T200 527T210 488Q210 466 200 449T172 423T134 413Z" />
<glyph unicode="&#x2019;" horiz-adv-x="267" d="M137 696Q165 696 183 683T212 646T222 592Q222 555 208 521T168 458T104 411L54 454Q81 464 102 480T137 516T158 557L154 559Q149 556 143 554T124 552Q110 552 96 559T71 582T61 621Q61 643 71 660T99 686T137 696Z" />
<glyph unicode="&#x201a;" horiz-adv-x="264" d="M390 135Q418 135 436 122T465 85T475 31Q475 -6 461 -40T421 -103T357 -150L307 -107Q334 -97 355 -81T390 -45T411 -4L407 -2Q402 -5 396 -7T377 -9Q363 -9 349 -2T324 21T314 60Q314 82 324 99T352 125T390 135Z" />
<glyph unicode="&#x201c;" horiz-adv-x="472" d="M134 413Q106 413 88 426T59 463T49 517Q49 554 63 588T103 651T167 698L217 655Q190 645 169 629T134 593T113 552L117 550Q122 553 128 555T147 557Q161 557 175 550T200 527T210 488Q210 466 200 449T172 423T134
413ZM339 413Q311 413 293 426T264 463T254 517Q254 554 268 588T308 651T372 698L422 655Q395 645 374 629T339 593T318 552L322 550Q327 553 333 555T352 557Q366 557 380 550T405 527T415 488Q415 466 405 449T377 423T339 413Z" />
<glyph unicode="&#x201d;" horiz-adv-x="472" d="M137 696Q165 696 183 683T212 646T222 592Q222 555 208 521T168 458T104 411L54 454Q81 464 102 480T137 516T158 557L154 559Q149 556 143 554T124 552Q110 552 96 559T71 582T61 621Q61 643 71 660T99 686T137
696ZM342 696Q370 696 388 683T417 646T427 592Q427 555 413 521T373 458T309 411L259 454Q286 464 307 480T342 516T363 557L359 559Q354 556 348 554T329 552Q315 552 301 559T276 582T266 621Q266 643 276 660T304 686T342 696Z" />
<glyph unicode="&#x201e;" horiz-adv-x="468" d="M390 135Q418 135 436 122T465 85T475 31Q475 -6 461 -40T421 -103T357 -150L307 -107Q334 -97 355 -81T390 -45T411 -4L407 -2Q402 -5 396 -7T377 -9Q363 -9 349 -2T324 21T314 60Q314 82 324 99T352 125T390
135ZM338 135Q366 135 384 122T413 85T423 31Q423 -6 409 -40T369 -103T305 -150L255 -107Q282 -97 303 -81T338 -45T359 -4L355 -2Q350 -5 344 -7T325 -9Q311 -9 297 -2T272 21T262 60Q262 82 272 99T300 125T338 135Z" />
<glyph unicode="&#x2022;" horiz-adv-x="430" d="M215 206Q156 206 119 242T81 336Q81 394 118 429T215 465Q275 465 312 430T349 336Q349 279 312 243T215 206Z" />
<glyph unicode="&#x2039;" horiz-adv-x="324" d="M277 461L151 265L277 69H172L46 265L172 461H277Z" />
<glyph unicode="&#x203a;" horiz-adv-x="324" d="M47 69L173 265L47 461H152L278 265L152 69H47Z" />
</font>
</defs>
</svg>
